Великий пост (Дмитрий Зинченков, Марина Дайновец, Максим Малинин) [2011, торжество Православия, SATRip-AVC]

 
 Статистика раздачи 
Размер: 725.39 МБ   |  Зарегистрирован: 19 мар 2017, 14:45   |   .torrent скачан: 0 раз
Сидеров: 1  [ 0 байт/сек ]     Личеров: 0  [ 0 байт/сек ]  
  

Великий пост (Дмитрий Зинченков, Марина Дайновец, Максим Малинин) [2011, торжество Православия, SATRip-AVC]

Сообщение Lester » 19 мар 2017, 14:45

Великий пост


Дата/Год выпуска: 2011
Страна
: Россия
Жанр: торжество Православия
Продолжительность: 00:50:52
Перевод: Не требуется
Русские субтитры: нет
Оригинальная аудиодорожка: русский
Режиссер: Дмитрий Зинченков, Марина Дайновец, Максим Малинин
Телеканал: 1-ый канал

Описание: Что такое Великий пост? Многие воспринимают это время только как отказ от привычных продуктов и в итоге ничего, кроме чувства голода и раздражения, не испытывают. В лучшем случае потерю пары килограммов. Что же мы делаем не так? Фильм расскажет об истории и традициях Великого поста. О том, что целых шесть недель нужно во всем себя ограничивать – в еде и поступках. О шести неделях, когда можно все изменить к лучшему. Согласно христианской традиции, в основе поста лежит сознательное, добровольное самоограничение, цель которого - освободиться от всего лишнего, ненастоящего, ненужного. Но главное, нужно понимать: жестких универсальных инструкций к Великому посту нет – каждый из нас принимает решение сам. Наши дни до упора забиты обычными делами. Мы общаемся, не различая лиц. Пропускаем через себя мегабайты информации, не фиксируя деталей. Но постепенно мир начинает давить изнутри - разрушать, мешать, беспокоить. Вылезают обиды, разочарования, болезни, страхи... Вырваться из этой паутины проблем - большой труд. Для того чтобы нам легче это было сделать, существует особое время. В греческой Церкви его называют *кайрос* - время удачи, решений и возможностей. Это Великий пост - самый продолжительный в православной традиции. Согласно Евангелию, первым через этот опыт, сразу после Крещения в водах Иордана прошел Иисус Христос. Зрители также узнает, что происходит во время Таинства крещения и что такое Таинство исповеди, что такое пост по монастырскому уставу и почему строгий пост имеет противопоказания? Почему для многих людей воздержание во время поста помогает обрести новые силы и духовную целостность. Это фильм о свободе, об искушениях и победе над ними, о покаянии и прощении... В фильм также вошли постановочные реконструкции евангельских сюжетов: Крещения (Богоявления) глазами Апостолов Андрея и Иоанна, пребывание Христа в пустыне и три искушения, призвание первых учеников в Капернауме, а также история мытаря Закхея.

качество: SATRip-AVC
формат: MKV
Видео: AVC, 704x430 (16:9), 25.000 fps, 1 800 Kbps (0.238 bit/pixel)
Аудио: AC-3, 48.0 KHz, 2 ch, 192 Kbps, CBR (Russian)
Код: Выделить всё
General
Unique ID                                : 239709192014037677022628419663186421931 (0xB4564FA33B5B03EFA5788C0FBED0E8AB)
Complete name                            : G:\Великий пост.mkv
Format                                   : Matroska
Format version                           : Version 2
File size                                : 725 MiB
Duration                                 : 50mn 52s
Overall bit rate                         : 1 994 Kbps
Encoded date                             : UTC 2017-02-28 06:23:10
Writing application                      : mkvmerge v7.8.0 ('River Man') 32bit built on Apr  3 2015 12:11:22
Writing library                          : libebml v1.3.1 + libmatroska v1.4.2

Video
ID                                       : 1
Format                                   : AVC
Format/Info                              : Advanced Video Codec
Format profile                           : High@L4.1
Format settings, CABAC                   : Yes
Format settings, ReFrames                : 12 frames
Codec ID                                 : V_MPEG4/ISO/AVC
Duration                                 : 50mn 52s
Bit rate                                 : 1 800 Kbps
Width                                    : 704 pixels
Height                                   : 430 pixels
Display aspect ratio                     : 16:9
Original display aspect ratio            : 16:9
Frame rate mode                          : Constant
Frame rate                               : 25.000 fps
Color space                              : YUV
Chroma subsampling                       : 4:2:0
Bit depth                                : 8 bits
Scan type                                : Progressive
Bits/(Pixel*Frame)                       : 0.238
Stream size                              : 641 MiB (88%)
Writing library                          : x264 core 146 r2538 121396c
Encoding settings                        : cabac=1 / ref=12 / deblock=1:-2:-2 / analyse=0x3:0x133 / me=umh / subme=10 / psy=1 / psy_rd=1.05:0.10 / mixed_ref=1 / me_range=32 / chroma_me=1 / trellis=2 / 8x8dct=1 / cqm=0 / deadzone=21,11 / fast_pskip=0 / chroma_qp_offset=-3 / threads=3 / lookahead_threads=1 / sliced_threads=0 / nr=0 / decimate=0 / interlaced=0 / bluray_compat=0 / constrained_intra=0 / bframes=16 / b_pyramid=2 / b_adapt=2 / b_bias=0 / direct=3 / weightb=1 / open_gop=0 / weightp=2 / keyint=250 / keyint_min=25 / scenecut=40 / intra_refresh=0 / rc=2pass / mbtree=0 / bitrate=1800 / ratetol=1.0 / qcomp=0.63 / qpmin=0 / qpmax=39 / qpstep=4 / cplxblur=20.0 / qblur=0.5 / ip_ratio=1.10 / pb_ratio=1.30 / aq=1:1.00
Language                                 : Russian
Default                                  : Yes
Forced                                   : No
Color primaries                          : BT.601 PAL
Transfer characteristics                 : BT.470 System B, BT.470 System G
Matrix coefficients                      : BT.601

Audio
ID                                       : 2
Format                                   : AC-3
Format/Info                              : Audio Coding 3
Mode extension                           : CM (complete main)
Format settings, Endianness              : Big
Codec ID                                 : A_AC3
Duration                                 : 50mn 52s
Bit rate mode                            : Constant
Bit rate                                 : 192 Kbps
Channel(s)                               : 2 channels
Channel positions                        : Front: L R
Sampling rate                            : 48.0 KHz
Bit depth                                : 16 bits
Compression mode                         : Lossy
Stream size                              : 69.9 MiB (10%)
Language                                 : Russian
Default                                  : Yes
 
Не забывайте говорить Спасибо. Не уходите с раздачи!   
Торрент: Зарегистрирован [19 мар 2017, 14:45] Для скачивания .torrent
необходима регистрация
Или скачать с помощью
MediaGet
Статус:
Проверен
 
.torrent скачан: 0 раз
Хэш: 3ca32d3284c4f22c218e1c7c652a1e4883336a95
Размер: 725.39 МБ (760 628 061 байт)
Стать Автором раздачи
 
 
Раздал: 100 ГБ
Скачал: 0 байт
Ратио: Seed.
Сообщения: 104280
Зарегистрирован: 09 апр 2015, 23:00


  • Похожие торренты
    Ответы
    Просмотры
    Последнее сообщение

Вернуться в Вера и религия (видео)

Ресурс не предоставляет электронные версии произведений, а занимается лишь коллекционированием и каталогизацией ссылок, присылаемых и публикуемых на форуме нашими читателями. Если вы являетесь правообладателем какого-либо представленного материала и не желаете чтобы ссылка на него находилась в нашем каталоге, свяжитесь с нами и мы незамедлительно удалим её. Файлы для обмена на трекере предоставлены пользователями сайта, и администрация не несёт ответственности за их содержание. Просьба не заливать файлы, защищенные авторскими правами, а также файлы нелегального содержания!
cron