(Reggae) Bob Marley - Exodus - 2000 (Compilation), FLAC (image+.cue), lossless

 
 Статистика раздачи 
Размер: 362.3 МБ   |  Зарегистрирован: 13 мар 2017, 14:54   |   .torrent скачан: 44 раз
Сидеров: 8  [ 0 байт/сек ]     Личеров: 1  [ 0 байт/сек ]  
  

(Reggae) Bob Marley - Exodus - 2000 (Compilation), FLAC (image+.cue), lossless

Сообщение Lester » 13 мар 2017, 14:54

Bob Marley / Exodus

Жанр: Reggae
Страна-производитель диска (релиза): Germany
Год издания: 2000
Издатель (лейбл): Falcon Neue Medien, Universe
Номер по каталогу: 3756
Аудиокодек: FLAC (*.flac)
Тип рипа: image+.cue
Битрейт аудио: lossless
Продолжительность: 01:04:27
Источник (релизер): alexpika
Наличие сканов в содержимом раздачи: да
Треклист:

01. Exodus 7:24
02. Fussing And Fighting 2:25
03 Chances Are 3:22
04. Is This Love 3:46
06. Kaya 3:08
07. Lively Up Yourself 5:07
08. Natty Dread 3:31
09. Natural Mystic 5:42
10. No Woman No Cry 3:41
11. Rat Race 2:46
12. Revolution 4:14
13. Soul Captives 2:00
14. Soul Rebel 3:18
15. Touch Me 3:02
16. Trench Town Rock 2:47
17. There She Goes 2:35
18. How Many Times 2:46
Код: Выделить всё
Exact Audio Copy V1.0 beta 3 from 29. August 2011

EAC extraction logfile from 11. March 2017, 10:48

Bob Marley / Exodus

Used drive  : TSSTcorpCDDVDW SH-216DB   Adapter: 0  ID: 0

Read mode               : Secure
Utilize accurate stream : Yes
Defeat audio cache      : Yes
Make use of C2 pointers : No

Read offset correction                      : 6
Overread into Lead-In and Lead-Out          : No
Fill up missing offset samples with silence : Yes
Delete leading and trailing silent blocks   : No
Null samples used in CRC calculations       : Yes
Used interface                              : Native Win32 interface for Win NT & 2000

Used output format              : User Defined Encoder
Selected bitrate                : 1024 kBit/s
Quality                         : High
Add ID3 tag                     : No
Command line compressor         : C:\Program Files (x86)\Exact Audio Copy\Flac\flac.exe
Additional command line options : -V -8 -T "Date=%year%" -T "Genre=%genre%" %source%

TOC of the extracted CD

     Track |   Start  |  Length  | Start sector | End sector
    ---------------------------------------------------------
        1  |  0:00.00 |  7:27.00 |         0    |    33524
        2  |  7:27.00 |  2:26.51 |     33525    |    44525
        3  |  9:53.51 |  3:24.47 |     44526    |    59872
        4  | 13:18.23 |  2:54.06 |     59873    |    72928
        5  | 16:12.29 |  3:48.10 |     72929    |    90038
        6  | 20:00.39 |  3:09.68 |     90039    |   104281
        7  | 23:10.32 |  5:07.71 |    104282    |   127377
        8  | 28:18.28 |  3:32.71 |    127378    |   143348
        9  | 31:51.24 |  5:43.42 |    143349    |   169115
       10  | 37:34.66 |  3:42.21 |    169116    |   185786
       11  | 41:17.12 |  2:48.26 |    185787    |   198412
       12  | 44:05.38 |  4:15.36 |    198413    |   217573
       13  | 48:20.74 |  1:59.71 |    217574    |   226569
       14  | 50:20.70 |  3:19.57 |    226570    |   241551
       15  | 53:40.52 |  3:01.44 |    241552    |   255170
       16  | 56:42.21 |  2:47.53 |    255171    |   267748
       17  | 59:29.74 |  2:35.13 |    267749    |   279386
       18  | 62:05.12 |  2:44.16 |    279387    |   291702

Range status and errors

Selected range

     Filename L:\Private\My Audio Ripps\ CD - RIPS\Bob Marley - Exodus\Bob Marley - Exodus.wav

     Peak level 100.0 %
     Extraction speed 2.3 X
     Range quality 99.9 %
     Test CRC AF9206C1
     Copy CRC AF9206C1
     Copy OK

No errors occurred

AccurateRip summary

Track  1  accurately ripped (confidence 2)  [C541D4EF]  (AR v2)
Track  2  accurately ripped (confidence 2)  [FD14311E]  (AR v2)
Track  3  accurately ripped (confidence 2)  [29892F52]  (AR v2)
Track  4  accurately ripped (confidence 2)  [D0E0A450]  (AR v2)
Track  5  accurately ripped (confidence 2)  [DC43BF09]  (AR v2)
Track  6  accurately ripped (confidence 2)  [5D19A4FA]  (AR v2)
Track  7  accurately ripped (confidence 2)  [D43C9110]  (AR v2)
Track  8  accurately ripped (confidence 2)  [44C49176]  (AR v2)
Track  9  accurately ripped (confidence 2)  [AC48EAEC]  (AR v2)
Track 10  accurately ripped (confidence 2)  [B77539FF]  (AR v2)
Track 11  accurately ripped (confidence 2)  [07646017]  (AR v2)
Track 12  accurately ripped (confidence 2)  [B247E37B]  (AR v2)
Track 13  accurately ripped (confidence 2)  [780E6BE4]  (AR v2)
Track 14  accurately ripped (confidence 2)  [206EE2C6]  (AR v2)
Track 15  accurately ripped (confidence 2)  [3B176DE7]  (AR v2)
Track 16  accurately ripped (confidence 2)  [E429EA68]  (AR v2)
Track 17  accurately ripped (confidence 2)  [5F75182B]  (AR v2)
Track 18  accurately ripped (confidence 2)  [AE342233]  (AR v2)

All tracks accurately ripped

End of status report

==== Log checksum EB4000F0F6BBE1F60D2E67E7DC51429D8515D3B730C722167FE36C64A53E21BF ====
Код: Выделить всё
REM GENRE Reggae
REM DISCID EF0F3112
REM COMMENT "ExactAudioCopy v1.0b3"
PERFORMER "Bob Marley"
TITLE "Exodus"
FILE "Bob Marley - Exodus.flac" WAVE
  TRACK 01 AUDIO
    TITLE "Exodus"
    PERFORMER "Bob Marley"
    INDEX 01 00:00:00
  TRACK 02 AUDIO
    TITLE "Fussing And Fighting"
    PERFORMER "Bob Marley"
    INDEX 00 07:25:00
    INDEX 01 07:27:00
  TRACK 03 AUDIO
    TITLE "Chances Are"
    PERFORMER "Bob Marley"
    INDEX 00 09:51:51
    INDEX 01 09:53:51
  TRACK 04 AUDIO
    TITLE "Hammer"
    PERFORMER "Bob Marley"
    INDEX 00 13:16:23
    INDEX 01 13:18:23
  TRACK 05 AUDIO
    TITLE "Is This Love"
    PERFORMER "Bob Marley"
    INDEX 00 16:10:29
    INDEX 01 16:12:29
  TRACK 06 AUDIO
    TITLE "Kaya"
    PERFORMER "Bob Marley"
    INDEX 00 19:58:39
    INDEX 01 20:00:39
  TRACK 07 AUDIO
    TITLE "Lively Up Yourself"
    PERFORMER "Bob Marley"
    INDEX 00 23:08:32
    INDEX 01 23:10:32
  TRACK 08 AUDIO
    TITLE "Natty Dread"
    PERFORMER "Bob Marley"
    INDEX 00 28:16:28
    INDEX 01 28:18:28
  TRACK 09 AUDIO
    TITLE "Natural Mystic"
    PERFORMER "Bob Marley"
    INDEX 00 31:49:24
    INDEX 01 31:51:24
  TRACK 10 AUDIO
    TITLE "No Woman No Cry"
    PERFORMER "Bob Marley"
    INDEX 00 37:32:66
    INDEX 01 37:34:66
  TRACK 11 AUDIO
    TITLE "Rat Race"
    PERFORMER "Bob Marley"
    INDEX 00 41:15:12
    INDEX 01 41:17:12
  TRACK 12 AUDIO
    TITLE "Revolution"
    PERFORMER "Bob Marley"
    INDEX 00 44:03:38
    INDEX 01 44:05:38
  TRACK 13 AUDIO
    TITLE "Soul Captives"
    PERFORMER "Bob Marley"
    INDEX 00 48:18:74
    INDEX 01 48:20:74
  TRACK 14 AUDIO
    TITLE "Soul Rebel"
    PERFORMER "Bob Marley"
    INDEX 00 50:18:70
    INDEX 01 50:20:70
  TRACK 15 AUDIO
    TITLE "Touch Me"
    PERFORMER "Bob Marley"
    INDEX 00 53:38:52
    INDEX 01 53:40:52
  TRACK 16 AUDIO
    TITLE "Trench Town Rock"
    PERFORMER "Bob Marley"
    INDEX 00 56:40:21
    INDEX 01 56:42:21
  TRACK 17 AUDIO
    TITLE "There She Goes"
    PERFORMER "Bob Marley"
    INDEX 00 59:27:74
    INDEX 01 59:29:74
  TRACK 18 AUDIO
    TITLE "How Many Times"
    PERFORMER "Bob Marley"
    INDEX 00 62:03:12
    INDEX 01 62:05:12
Код: Выделить всё
foobar2000 1.1.10 / Dynamic Range Meter 1.1.1
log date: 2017-03-14 14:25:02

--------------------------------------------------------------------------------
Analyzed: Bob Marley / Exodus
--------------------------------------------------------------------------------

DR         Peak         RMS     Duration Track
--------------------------------------------------------------------------------
DR14       0.00 dB   -15.75 dB      7:27 ?-Exodus
DR10       0.00 dB   -13.93 dB      2:27 ?-Fussing And Fighting
DR13       0.00 dB   -16.51 dB      3:25 ?-Chances Are
DR11       0.00 dB   -12.66 dB      2:54 ?-Hammer
DR12       0.00 dB   -14.78 dB      3:48 ?-Is This Love
DR13       0.00 dB   -15.30 dB      3:10 ?-Kaya
DR13       0.00 dB   -14.23 dB      5:08 ?-Lively Up Yourself
DR13       0.00 dB   -14.99 dB      3:33 ?-Natty Dread
DR13       0.00 dB   -13.69 dB      5:44 ?-Natural Mystic
DR13       0.00 dB   -14.86 dB      3:42 ?-No Woman No Cry
DR15       0.00 dB   -16.69 dB      2:48 ?-Rat Race
DR12       0.00 dB   -13.85 dB      4:15 ?-Revolution
DR12       0.00 dB   -13.57 dB      2:00 ?-Soul Captives
DR9        0.00 dB   -10.85 dB      3:20 ?-Soul Rebel
DR10       0.00 dB   -12.98 dB      3:02 ?-Touch Me
DR11      -0.50 dB   -12.95 dB      2:48 ?-Trench Town Rock
DR12       0.00 dB   -13.34 dB      2:35 ?-There She Goes
DR11       0.00 dB   -11.93 dB      2:44 ?-How Many Times
--------------------------------------------------------------------------------

Number of tracks:  18
Official DR value: DR12

Samplerate:        44100 Hz
Channels:          2
Bits per sample:   16
Bitrate:           779 kbps
Codec:             FLAC
================================================================================
 
Не забывайте говорить Спасибо. Не уходите с раздачи!   
Торрент: Зарегистрирован [13 мар 2017, 14:54] Для скачивания .torrent
необходима регистрация
Или скачать с помощью
MediaGet
Статус:
Проверен
 
.torrent скачан: 44 раз
Хэш: 7f19aaa8b2afdd6dfbd97c9fba2e54f9696127bb
Размер: 362.3 МБ (379 897 671 байт)
Стать Автором раздачи
 
 
Раздал: 100 ГБ
Скачал: 0 байт
Ратио: Seed.
Сообщения: 92005
Зарегистрирован: 09 апр 2015, 23:00


  • Похожие торренты
    Ответы
    Просмотры
    Последнее сообщение

Вернуться в Reggae, Dancehall, Dub (lossless)

Кто сейчас на конференции

Сейчас эту тему просматривают: нет зарегистрированных пользователей и гости: 1

Ресурс не предоставляет электронные версии произведений, а занимается лишь коллекционированием и каталогизацией ссылок, присылаемых и публикуемых на форуме нашими читателями. Если вы являетесь правообладателем какого-либо представленного материала и не желаете чтобы ссылка на него находилась в нашем каталоге, свяжитесь с нами и мы незамедлительно удалим её. Файлы для обмена на трекере предоставлены пользователями сайта, и администрация не несёт ответственности за их содержание. Просьба не заливать файлы, защищенные авторскими правами, а также файлы нелегального содержания!