Притяжение (2017) WEB-DLRip [H.264] [MP4|1920х800]

 
 Статистика раздачи 
Размер: 2.9 ГБ   |  Зарегистрирован: 13 мар 2017, 14:50   |   .torrent скачан: 5 раз
Сидеров: 1  [ 0 байт/сек ]     Личеров: 0  [ 0 байт/сек ]  
  

Притяжение (2017) WEB-DLRip [H.264] [MP4|1920х800]

Сообщение Ressler » 13 мар 2017, 14:50

Притяжение (2017) WEB-DLRip

Производство: Россия, Кинокомпания «Водород», Art Pictures Studio
Жанр: Фантастика

Режиссер: Фёдор Бондарчук
Актеры: Ирина Старшенбаум, Александр Петров, Риналь Мухаметов, Олег Меньшиков, Евгений Сангаджиев, Алексей Маслодудов, Никита Кукушкин, Евгений Михеев, Антон Шпиньков, Евгений Коряковский

Описание:
Как только что стало известно, сбитый над Москвой неопознанный объект имеет, возможно, внеземное происхождение. Большая часть столичного Чертанова оцеплена, к месту крушения стягиваются представители силовых структур, решается вопрос об эвакуации местных жителей. По словам нашего источника в Минобороны, сейчас специальная комиссия пытается вступить в контакт с так называемыми «гостями». В эти минуты мы готовим экстренный выпуск новостей и о развитии событий вы узнаете первыми…



Возраст: 12+ (зрителям, достигшим 12 лет)
Дата выхода DVD/Blu-ray релиза: 26 января 2017

Релиз от: HDCLUB

Продолжительность: 02:12:40
Качество видео: WEB-DLRip

Видео: AVC/H.264, 1920х800, ~3000 Kbps
Аудио: AAC, 2 ch, 128 Kbps
Код: Выделить всё
General
      Format : MPEG-4
      Format profile : Base Media
      Codec ID : isom (isom/iso2/avc1/mp41)
      File size : 2.90 GiB
      Duration : 2 h 12 min
      Overall bit rate : 3 133 kb/s
      Movie name : Prityazhenie (2017) - Release for HDCLUB
      Writing application : Lavf56.40.101
   Video #1
      ID : 1
      Format : AVC
      Format/Info : Advanced Video Codec
      Format profile : High@L4
      Format settings, CABAC : Yes
      Format settings, ReFrames : 3 frames
      Codec ID : avc1
      Codec ID/Info : Advanced Video Coding
      Duration : 2 h 12 min
      Bit rate : 3 000 kb/s
      Width : 1 920 pixels
      Height : 800 pixels
      Display aspect ratio : 2.40:1
      Frame rate mode : Constant
      Frame rate : 23.976 (23976/1000) FPS
      Color space : YUV
      Chroma subsampling : 4:2:0
      Bit depth : 8 bits
      Scan type : Progressive
      Bits/(Pixel*Frame) : 0.081
      Stream size : 2.78 GiB (96%)
      Title : Prityazhenie (2017) - Release for HDCLUB
      Writing library : x264 core 148
      Encoding settings : cabac=1 / ref=3 / deblock=1:0:0 / analyse=0x3:0x113 / me=hex / subme=7 / psy=1 / psy_rd=1.00:0.00 / mixed_ref=1 / me_range=16 / chroma_me=0 / trellis=1 / 8x8dct=1 / cqm=0 / deadzone=21,11 / fast_pskip=1 / chroma_qp_offset=-2 / threads=25 / lookahead_threads=4 / sliced_threads=0 / nr=0 / decimate=1 / interlaced=0 / bluray_compat=0 / constrained_intra=0 / bframes=3 / b_pyramid=1 / b_adapt=1 / b_bias=0 / direct=1 / weightb=1 / open_gop=0 / weightp=2 / keyint=250 / keyint_min=25 / scenecut=40 / intra_refresh=0 / rc_lookahead=40 / rc=2pass / mbtree=1 / bitrate=3000 / ratetol=1.0 / qcomp=0.60 / qpmin=0 / qpmax=69 / qpstep=4 / cplxblur=20.0 / qblur=0.5 / ip_ratio=1.41 / aq=1:1.00
      Language : Russian
      Menus : 3
   Audio #2
      ID : 2
      Format : AAC
      Format/Info : Advanced Audio Codec
      Format profile : LC
      Codec ID : 40
      Duration : 2 h 12 min
      Duration_LastFrame : -11 ms
      Bit rate mode : Constant
      Bit rate : 128 kb/s
      Channel(s) : 2 channels
      Channel(s)_Original : 6 channels
      Channel positions : Front: L C R, Side: L R, LFE
      Sampling rate : 48.0 kHz
      Frame rate : 46.875 FPS (1024 spf)
      Compression mode : Lossy
      Stream size : 121 MiB (4%)
      Title : AC3 5.1 @ 384 kbps
      Language : Russian
      Default : Yes
      Alternate group : 1
      Menus : 3

Скриншоты:




Время раздачи: с 23:00 до 7:00 и ещё по возможности до 5 скачавших. (до появления первых 3-5 скачавших)
 
Не забывайте говорить Спасибо. Не уходите с раздачи!   
Торрент: Зарегистрирован [13 мар 2017, 14:50] Для скачивания .torrent
необходима регистрация
Или скачать с помощью
MediaGet
Статус:
Проверен
 
.torrent скачан: 5 раз
Хэш: 917113f0bb3a3e0081294fad9998734671124045
Размер: 2.9 ГБ (3 117 829 531 байт)
Стать Автором раздачи
 
 
Раздал: 100 ГБ
Скачал: 0 байт
Ратио: Seed.
Сообщения: 29984
Зарегистрирован: 09 апр 2015, 23:02


  • Похожие торренты
    Ответы
    Просмотры
    Последнее сообщение

Вернуться в Видео для мобильных устройств

Ресурс не предоставляет электронные версии произведений, а занимается лишь коллекционированием и каталогизацией ссылок, присылаемых и публикуемых на форуме нашими читателями. Если вы являетесь правообладателем какого-либо представленного материала и не желаете чтобы ссылка на него находилась в нашем каталоге, свяжитесь с нами и мы незамедлительно удалим её. Файлы для обмена на трекере предоставлены пользователями сайта, и администрация не несёт ответственности за их содержание. Просьба не заливать файлы, защищенные авторскими правами, а также файлы нелегального содержания!
cron