Пространство / Экспансия / The Expanse (2017) WEB-DL [H.264] (сезон 2, серии 1-7 из 13) LostFilm [MP4|1280x720]

 
 Статистика раздачи 
Размер: 8.96 ГБ   |  Зарегистрирован: 13 мар 2017, 13:07   |   .torrent скачан: 0 раз
Сидеров: 1  [ 0 байт/сек ]     Личеров: 0  [ 0 байт/сек ]  
  

Пространство / Экспансия / The Expanse (2017) WEB-DL [H.264] (сезон 2, серии 1-7 из 13) LostFilm [MP4|1280x720]

Сообщение Ressler » 13 мар 2017, 13:07

Пространство / Экспансия / The Expanse (2017) WEB-DL [H.264/720p -LQ] (сезон 2, серии 1-7 из 13)

«We've gone too far»
Производство: США / Alcon Entertainment, Sean Daniel Company
Жанр: фантастика, триллер, драма, детектив

Режиссер: Терри МакДонаф, Джефф Вулнаф, Роберт Либерман
Актеры: Фрэнки Адамс, Ник Е. Тарабэй, Томас Джейн, Стивен Стрейт, Кэс Анвар, Доминик Типпер, Уэс Чэтэм, Флоренс Ванида Фэйвр, Шоре Агдашлу, Эндрю Ротилло и др.

Описание:
Прошло два столетия с тех пор, как человечество полностью колонизировало Солнечную систему, достигнув внешнего пояса астероидов. Детектив Джозеф Миллер, начав поиски пропавшей без вести Джульетты Андромеды Мао, вместе с капитаном космического корабля «Кентербери» Джимом Холденом вышли на след заговорщиков, цель которых — захватить власть в галактике.



Продолжительность: ~00:43:00 серия
Качество видео: WEB-DL
Перевод: Многоголосый закадровый, профессиональный - LostFilm
Реклама: присутствуют заставка LostFilm

Видео: H.264/AVC, 1280x720 (16:9), ~4000 kbps
Аудио Rus: AAC, 2 ch, 256 kbps — многоголосый закадровый
Код: Выделить всё
General
Complete name               : D:\Movies\Пространство (сезон 2) The Expanse (2017) WEB-DL 720p - LostFilm\The.Expanse.S02E01.720p.WEB.rus.LostFilm.TV.mp4
Format                      : MPEG-4
Format profile              : Base Media
Codec ID                    : isom (isom)
File size                   : 1.31 GiB
Duration                    : 43 min 36 s
Overall bit rate mode       : Variable
Overall bit rate            : 4 293 kb/s
Collection                  : Экспансия
Season                      : 2
Album                       : Экспансия, Сезон 2
Album/Performer             : Экспансия
Part                        : 1
Part/Position               : 2
Track name                  : Сейф
Track name/Position         : 1
Performer                   : Экспансия
Genre                       : Sci-Fi & Fantasy
ContentType                 : TV Show
Recorded date               : 2017
Encoded date                : UTC 2017-02-03 23:58:16
Tagged date                 : UTC 2017-02-03 23:58:16
Writing application         : LostCoder
Copyright                   : LostFilm.TV (c)
Cover                       : Yes
Comment                     : Будущее. Человечество успешно колонизировало Солнечную систему. На Земле правит ООН, на Марсе — независимое военное правительство. Единственным источником ресурсов для планет стал Пояс астероидов, вода и воздух которого ценятся больше, чем золото.
Part_ID                     : 201
rati                        : (Binary)

Video
ID                          : 1
Format                      : AVC
Format/Info                 : Advanced Video Codec
Format profile              :
Format settings, CABAC      : No
Format settings, ReFrames   : 2 frames
Codec ID                    : avc1
Codec ID/Info               : Advanced Video Coding
Duration                    : 43 min 36 s
Bit rate                    : 4 000 kb/s
Maximum bit rate            : 13.5 Mb/s
Width                       : 1 280 pixels
Height                      : 720 pixels
Display aspect ratio        : 16:9
Frame rate mode             : Variable
Frame rate                  : 23.976 FPS
Minimum frame rate          : 23.974 FPS
Maximum frame rate          : 23.981 FPS
Color space                 : YUV
Chroma subsampling          : 4:2:0
Bit depth                   : 8 bits
Scan type                   : Progressive
Bits/(Pixel*Frame)          : 0.181
Stream size                 : 1.23 GiB (94%)
Writing library             : x264 core 112 r1834 a51816a
Encoding settings           : cabac=1 / ref=4 / deblock=1:-3:-2 / analyse=0x3:0x113 / me=hex / subme=7 / psy=1 / psy_rd=1.00:0.00 / mixed_ref=1 / me_range=16 / chroma_me=1 / trellis=1 / 8x8dct=1 / cqm=0 / deadzone=21,11 / fast_pskip=1 / chroma_qp_offset=-2 / threads=12 / sliced_threads=0 / nr=0 / decimate=1 / interlaced=0 / constrained_intra=0 / bframes=5 / b_pyramid=2 / b_adapt=1 / b_bias=0 / direct=1 / weightb=1 / open_gop=0 / weightp=2 / keyint=250 / keyint_min=25 / scenecut=40 / intra_refresh=0 / rc_lookahead=40 / rc=abr / mbtree=1 / bitrate=4000 / ratetol=1.0 / qcomp=0.60 / qpmin=0 / qpmax=51 / qpstep=4 / vbv_maxrate=10000 / vbv_bufsize=256000 / ip_ratio=1.40 / aq=1:1.00 / nal_hrd=none
Language                    : English
Tagged date                 : UTC 2017-02-03 23:58:52
Color range                 : Limited
Color primaries             : BT.709
Transfer characteristics    : BT.709
Matrix coefficients         : BT.709

Audio
ID                          : 2
Format                      : AAC
Format/Info                 : Advanced Audio Codec
Format profile              : LC
Codec ID                    : 40
Duration                    : 43 min 36 s
Bit rate mode               : Variable
Bit rate                    : 255 kb/s
Maximum bit rate            : 327 kb/s
Channel(s)                  : 2 channels
Channel positions           : Front: L R
Sampling rate               : 48.0 kHz
Frame rate                  : 46.875 FPS (1024 spf)
Compression mode            : Lossy
Stream size                 : 79.4 MiB (6%)
Encoded date                : UTC 2017-02-03 23:58:50
Tagged date                 : UTC 2017-02-03 23:58:52
01. Safe / Сейф
02. Doors & Corners / Двери и углы
03. Static / Помехи
04. Godspeed / В добрый путь
05. Home / Дом
06. Paradigm Shift / Смена парадигмы
07. The Seventh Man / Седьмой человек
Раздача ведётся путём добавления новых серий; при каждом добавлении создаётся новый торрент. Чтобы начать докачку новой серии, пользователям необходимо сделать следующее:
(1) остановить скачивание,
(2) удалить старый торрент у себя из клиента (старые серии удалять не надо),
(3) скачать новый торрент и запустить его у себя в клиенте вместо старого, при этом указать клиенту путь в старую папку куда и должно происходить скачивание новых серий.

Ваш клиент при этом должен произвести хеширование (проверку) старой папки (если не производит сам - помогите ему сделать это), и будет докачивать только те серии которых у вас ещё нет. Старые серии при этом не удаляются, а продолжают раздаваться!

Eсли вы уже удалили старые серии, то предотвратить повторную закачку старых серий можно, отжав галочку в соответствующих местах при запуске нового торрента. По возможности, желательно не удалять старые серии как можно дольше чтобы релизёр не столько продолжал раздавать старые серии, а смог сконцентрироваться на новых.

Скриншоты:





Время раздачи: Время раздачи: с 20:00 до 01:00 (до 3-5 скачавших)
 
Не забывайте говорить Спасибо. Не уходите с раздачи!   
Торрент: Зарегистрирован [13 мар 2017, 13:07] Для скачивания .torrent
необходима регистрация
Или скачать с помощью
MediaGet
Статус:
Проверен
 
.torrent скачан: 0 раз
Хэш: 40a796c3d712535bec1e7a0f4dfd3d4879ee00d7
Размер: 8.96 ГБ (9 619 764 934 байт)
Стать Автором раздачи
 
 
Раздал: 100 ГБ
Скачал: 0 байт
Ратио: Seed.
Сообщения: 29984
Зарегистрирован: 09 апр 2015, 23:02


  • Похожие торренты
    Ответы
    Просмотры
    Последнее сообщение

Вернуться в Видео для мобильных устройств

Ресурс не предоставляет электронные версии произведений, а занимается лишь коллекционированием и каталогизацией ссылок, присылаемых и публикуемых на форуме нашими читателями. Если вы являетесь правообладателем какого-либо представленного материала и не желаете чтобы ссылка на него находилась в нашем каталоге, свяжитесь с нами и мы незамедлительно удалим её. Файлы для обмена на трекере предоставлены пользователями сайта, и администрация не несёт ответственности за их содержание. Просьба не заливать файлы, защищенные авторскими правами, а также файлы нелегального содержания!
cron