Путь / The Path (2017) WEBRip [H.264] (Сезон 2, серии 1-8 из 13) LostFilm [MP4|1280x720]

 
 Статистика раздачи 
Размер: 11.23 ГБ   |  Зарегистрирован: 12 мар 2017, 12:45   |   .torrent скачан: 0 раз
Сидеров: 1  [ 0 байт/сек ]     Личеров: 0  [ 0 байт/сек ]  
  

Путь / The Path (2017) WEBRip [H.264] (Сезон 2, серии 1-8 из 13) LostFilm [MP4|1280x720]

Сообщение Ressler » 12 мар 2017, 12:45

Путь / The Path (2017) WEBRip (Сезон 2, серии 1-8 из 13) LostFilm
«To belong, you must believe»

Производство: США / Lucid Road Productions, True Jack Productions, Universal TV
Жанр: Драма, Детектив, Триллер

Режиссер: Майкл Уивер, Роксанн Доусон, Майк Кэхилл
Актеры: Хью Дэнси, Аарон Пол, Кэтлин Тёрнер, Мишель Монахэн, Питер Фридман, Макс Эрих, Патрик Дарро, Эндрю С. Томпсон, Кайл Аллен, Брайан Росс Хьюс, Ханна Кэбелл, Рокмонд Данбар, Эми Форсайт, Эмма Гринвелл и др.

Описание:
Сегодня, когда мир стоит на пороге войны, когда никто не застрахован от терроризма, когда мир переворачивается с ног на голову, неудивительно, что кризис веры наступает так быстро и неожиданно для каждого человека. Казалось бы, вещи, которые тебя не очень-то и волнуют, начинают напрямую влиять на жизнь. Эдди стоит на перепутье, а его преданная супруга Сара делает все возможное, чтобы поддержать мужа. В их жизни появляется мужчина по имени Кэл. У него большие планы на будущее. Однако о своих задумках он пока ничего не говорит. Пока Эдди и Сара ожидают чего-то большего, чем просто пустая Вера, Кэл готовится к тому, чтобы провернуть свой хитрый план.


Продолжительность: ~ 00:50:00 серия
Качество видео: WEBRip 720p
Перевод: Многоголосый закадровый, профессиональный - LostFilm
Реклама: присутствуют заставка и логотип LostFilm

Видео: AVC/H.264, 1280x720 (16:9), ~4000 Кбит/сек
Аудио: AAC, 2 канала, 233 Кбит/сек - русский (многоголосый закадровый)
Код: General
Complete name               : D:\NNMClub\Путь (сезон 2) The Path (2017).WEBRip.720p.Lostfilm\The.Path.S02E04.720p.WEB.rus.LostFilm.TV.mp4
Format                      : MPEG-4
Format profile              : Base Media
Codec ID                    : isom (isom)
File size                   : 1.38 GiB
Duration                    : 46 min 32 s
Overall bit rate mode       : Variable
Overall bit rate            : 4 237 kb/s
Collection                  : Путь
Season                      : 2
Album                       : Путь, Сезон 2
Album/Performer             : Путь
Part                        : 4
Part/Position               : 2
Track name                  : Красная стена
Track name/Position         : 4
Performer                   : Путь
Genre                       : Drama
ContentType                 : TV Show
Recorded date               : 2017
Encoded date                : UTC 2017-02-11 02:39:00
Tagged date                 : UTC 2017-02-11 02:39:00
Writing application         : LostCoder
Copyright                   : LostFilm.TV (c)
Cover                       : Yes
Comment                     : Эдди Лэйн с семьей живет безмятежной семейной жизнью в общине майеристов. Это движение проповедует вегетарианство и заботу о планете. Интуиция подсказывает главному герою, что за красивым и морально чистым фасадом скрываются грязные тайны.
Part_ID                     : 204

Video
ID                          : 1
Format                      : AVC
Format/Info                 : Advanced Video Codec
Format profile              :
Format settings, CABAC      : Yes
Format settings, ReFrames   : 4 frames
Codec ID                    : avc1
Codec ID/Info               : Advanced Video Coding
Duration                    : 46 min 32 s
Bit rate                    : 4 000 kb/s
Maximum bit rate            : 19.2 Mb/s
Width                       : 1 280 pixels
Height                      : 720 pixels
Display aspect ratio        : 16:9
Frame rate mode             : Constant
Frame rate                  : 23.976 (24000/1001) FPS
Original frame rate         : 23.976 (23976/1000) FPS
Color space                 : YUV
Chroma subsampling          : 4:2:0
Bit depth                   : 8 bits
Scan type                   : Progressive
Bits/(Pixel*Frame)          : 0.181
Stream size                 : 1.30 GiB (94%)
Title                       : Imported with GPAC 0.4.6-DEV (internal rev. 5)
Writing library             : x264 core 112 r1834 a51816a
Encoding settings           : cabac=1 / ref=4 / deblock=1:-3:-2 / analyse=0x3:0x113 / me=hex / subme=7 / psy=1 / psy_rd=1.00:0.00 / mixed_ref=1 / me_range=16 / chroma_me=1 / trellis=1 / 8x8dct=1 / cqm=0 / deadzone=21,11 / fast_pskip=1 / chroma_qp_offset=-2 / threads=12 / sliced_threads=0 / nr=0 / decimate=1 / interlaced=0 / constrained_intra=0 / bframes=5 / b_pyramid=2 / b_adapt=1 / b_bias=0 / direct=1 / weightb=1 / open_gop=0 / weightp=2 / keyint=250 / keyint_min=25 / scenecut=40 / intra_refresh=0 / rc_lookahead=40 / rc=2pass / mbtree=1 / bitrate=4000 / ratetol=1.0 / qcomp=0.60 / qpmin=0 / qpmax=51 / qpstep=4 / cplxblur=20.0 / qblur=0.5 / vbv_maxrate=10000 / vbv_bufsize=256000 / ip_ratio=1.40 / aq=1:1.00 / nal_hrd=none
Encoded date                : UTC 2017-02-08 04:56:04
Tagged date                 : UTC 2017-02-11 02:39:33

Audio
ID                          : 2
Format                      : AAC
Format/Info                 : Advanced Audio Codec
Format profile              : LC
Codec ID                    : 40
Duration                    : 46 min 32 s
Bit rate mode               : Variable
Bit rate                    : 233 kb/s
Maximum bit rate            : 314 kb/s
Channel(s)                  : 2 channels
Channel positions           : Front: L R
Sampling rate               : 48.0 kHz
Frame rate                  : 46.875 FPS (1024 spf)
Compression mode            : Lossy
Stream size                 : 77.5 MiB (5%)
Encoded date                : UTC 2017-02-11 02:39:30
Tagged date                 : UTC 2017-02-11 02:39:33
01 - Сумерки сознания / Liminal Twilight
02 - Новолуние / Dead Moon
03 - Отец и сын / The Father and the Son
04 - Красная стена / The Red Wall
05 - Цель наших бесед / Why We Source
06 - Безопасности ради / For Our Safety
07 - Провидение / Providence
08 - Возвращение / Return
Внимание! Раздача ведётся путём добавления новых серий; при каждом добавлении создаётся новый торрент.
Чтобы начать докачку новой серии, пользователям необходимо сделать следующее:
1. Остановить скачивание;
2. Удалить старый торрент у себя из клиента (старые серии удалять не надо);
3. Скачать новый торрент и запустить его у себя в клиенте вместо старого, при этом указать клиенту путь в старую папку куда и должно происходить скачивание новых серий. Ваш клиент при этом должен произвести хеширование (проверку) старой папки и будет докачивать только те серии, которых у вас ещё нет. Старые серии при этом не удаляются, а продолжают раздаваться! Eсли вы уже удалили старые серии, то предотвратить повторную закачку старых серий можно, отжав галочку в соответствующих местах при запуске нового торрента.

Скриншоты:



Время раздачи: 24/7 до первых 5-и скачавших
 
Не забывайте говорить Спасибо. Не уходите с раздачи!   
Торрент: Зарегистрирован [12 мар 2017, 12:45] Для скачивания .torrent
необходима регистрация
Или скачать с помощью
MediaGet
Статус:
Проверен
 
.torrent скачан: 0 раз
Хэш: d81e28186413db62af6a3c562dc96f25f386ff38
Размер: 11.23 ГБ (12 063 017 308 байт)
Стать Автором раздачи
 
 
Раздал: 100 ГБ
Скачал: 0 байт
Ратио: Seed.
Сообщения: 29984
Зарегистрирован: 09 апр 2015, 23:02


  • Похожие торренты
    Ответы
    Просмотры
    Последнее сообщение

Вернуться в Видео для мобильных устройств

Ресурс не предоставляет электронные версии произведений, а занимается лишь коллекционированием и каталогизацией ссылок, присылаемых и публикуемых на форуме нашими читателями. Если вы являетесь правообладателем какого-либо представленного материала и не желаете чтобы ссылка на него находилась в нашем каталоге, свяжитесь с нами и мы незамедлительно удалим её. Файлы для обмена на трекере предоставлены пользователями сайта, и администрация не несёт ответственности за их содержание. Просьба не заливать файлы, защищенные авторскими правами, а также файлы нелегального содержания!
cron