Кредо убийцы / Assassin's Creed (2016) WEBRip [H.264] [MP4|1024x576]

 
 Статистика раздачи 
Размер: 1.97 ГБ   |  Зарегистрирован: 11 мар 2017, 23:45   |   .torrent скачан: 0 раз
Сидеров: 1  [ 0 байт/сек ]     Личеров: 0  [ 0 байт/сек ]  
  

Кредо убийцы / Assassin's Creed (2016) WEBRip [H.264] [MP4|1024x576]

Сообщение Ressler » 11 мар 2017, 23:45

Кредо убийцы / Assassin's Creed (2016) WEBRip

«Welcome to the Spanish Inquisition»

Производство: Великобритания, Франция, Гонконг, США, Тайвань, Мальта, Канада, Regency Enterprises, Ubisoft, New Regency Pictures
Жанр: Фантастика, Фэнтези, Боевик, Приключения

Режиссер: Джастин Курзель
Актеры: Майкл Фассбендер, Марион Котийяр, Джереми Айронс, Брендан Глисон, Шарлотта Рэмплинг, Майкл Кеннет Уильямс, Дени Меноше, Ариана Лабед, Халид Абдалла, Эсси Дэвис ...

Описание:
Благодаря революционным технологиям, позволяющим вызвать в памяти воспоминания прежних поколений, Каллум Линч проживает приключения своего предка Агилара в Испании 15-го века. Каллум узнает, что является потомком членов загадочного тайного общества ассасинов. Накопив невероятные знания и навыки, он вступает в противостояние с могущественной и жестокой организацией тамплиеров в наши дни.


Возраст: 16+ (зрителям, достигшим 16 лет)
Рейтинг MPAA: PG-13 (детям до 13 лет просмотр нежелателен)

Релиз от: NNMClub
Продолжительность: 01:50:44
Качество видео: WEBRip
Перевод: Дублированный
Озвучка / Автор перевода: R5 (CP Digital)
Вид субтитров: Вшитые отключаемые
Язык субтитров: Русский

Видео: AVC/H.264 (Main@L3.1), 1024x576 (16:9), 25.000 fps, 2 216 Kbps
Аудио #1: AAC LC, 48.0 KHz, 2 ch, 160 Kbps, VBR (русский)
Аудио #2: AAC LC, 48.0 KHz, 2 ch, 160 Kbps, VBR (английский)
Код:
General
Complete name                            : C:\Downloads\Assassin's.Creed.2016.576p.WEBRip.AAC.x264.NNMclub.mp4
Format                                   : MPEG-4
Format profile                           : Base Media / Version 2
Codec ID                                 : mp42 (mp42/isom)
File size                                : 1.97 GiB
Duration                                 : 1 h 50 min
Overall bit rate mode                    : Variable
Overall bit rate                         : 2 543 kb/s
Movie name                               : Assassin's Creed
Performer                                : Justin Kurzel
Director                                 : Justin Kurzel
Actor                                    : Michael Fassbender / Marion Cotillard / Jeremy Irons / Brendan Gleeson / Charlotte Rampling / Michael K. Williams
Genre                                    : Action & Adventure
ContentType                              : Short Film
Description                              : Through a revolutionary technology that unlocks his genetic memories, Callum Lynch (Michael
Recorded date                            : 2016-12-21
Encoded date                             : UTC 2017-03-11 17:55:30
Tagged date                              : UTC 2017-03-11 18:00:48
Copyright                                : © 2016 Twentieth Century Fox Film Corporation and Ubisoft Motion Pictures Assassin's Creed
Cover                                    : Yes
LongDescription                          : Through a revolutionary technology that unlocks his genetic memories, Callum Lynch (Michael Fassbender) experiences the adventures of his ancestor, Aguilar, in 15th Century Spain.  Callum discovers he is descended from a mysterious secret society, the Assassins, and amasses incredible knowledge and skills to take on the oppressive and powerful Templar organization in the present day. ASSASSIN'S CREED stars Academy Award® nominee Michael Fassbender (X-Men: Days of Future Past, 12 Years a Slave) and Academy Award winner Marion Cotillard (The Dark Knight Rises, La Vie en Rose). The film is directed by Justin Kurzel (Snowtown, Macbeth); produced by New Regency, Ubisoft Motion Pictures, DMC Films and Kennedy/Marshall; co-financed by RatPac Entertainment and Alpha Pictures; and distributed by 20th Century Fox.
AppleStoreCountry                        : United States
AppleStoreCatalogID                      : 1181299509
ContentRating                            : mpaa|PG-13|300|

Video
ID                                       : 1
Format                                   : AVC
Format/Info                              : Advanced Video Codec
Format profile                           :
Format settings, CABAC                   : Yes
Format settings, ReFrames                : 3 frames
Codec ID                                 : avc1
Codec ID/Info                            : Advanced Video Coding
Duration                                 : 1 h 50 min
Bit rate                                 : 2 216 kb/s
Width                                    : 1 024 pixels
Height                                   : 576 pixels
Display aspect ratio                     : 16:9
Frame rate mode                          : Constant
Frame rate                               : 25.000 FPS
Color space                              : YUV
Chroma subsampling                       : 4:2:0
Bit depth                                : 8 bits
Scan type                                : Progressive
Bits/(Pixel*Frame)                       : 0.150
Stream size                              : 1.71 GiB (87%)
Writing library                          : x264 core 148 r2762+56 6284cf3 t_mod_Custom [8-bit@all X86_64]
Encoding settings                        : cabac=1 / ref=3 / deblock=1:-1:-1 / analyse=0x1:0x131 / me=umh / subme=7 / psy=1 / fade_compensate=0.10 / psy_rd=1.00:0.10 / mixed_ref=1 / me_range=32 / chroma_me=1 / trellis=1 / 8x8dct=0 / cqm=0 / deadzone=21,11 / fast_pskip=0 / chroma_qp_offset=-3 / threads=12 / lookahead_threads=2 / sliced_threads=0 / nr=0 / decimate=1 / interlaced=0 / bluray_compat=0 / constrained_intra=0 / fgo=0 / bframes=3 / b_pyramid=1 / b_adapt=2 / b_bias=0 / direct=3 / weightb=1 / open_gop=0 / weightp=0 / keyint=250 / keyint_min=25 / scenecut=40 / intra_refresh=0 / rc_lookahead=60 / rc=2pass / mbtree=1 / bitrate=2216 / ratetol=1.0 / qcomp=0.60 / qpmin=0:0:0 / qpmax=69:69:69 / qpstep=4 / cplxblur=20.0 / qblur=0.5 / vbv_maxrate=10000 / vbv_bufsize=10000 / nal_hrd=none / filler=0 / ip_ratio=1.40 / aq=3:0.90 / aq-sensitivity=10.00 / aq-factor=1.00:1.00:1.00 / aq2=1:0.80 / aq2-sensitivity=15.00 / aq2-factor=1.00:1.00:1.00 / aq3=4:[0.50:0.50]:[0.50:0.50]:[0.50:0.50]:[0.50:0.50] / aq3-sensitivity=10.00 / aq3-factor=[1.00:1.00]:[1.00:1.00]:[1.00:1.00] / aq3-boundary=205:56:9
Language                                 : English
Encoded date                             : UTC 2017-03-11 17:55:30
Tagged date                              : UTC 2017-03-11 18:00:48
Color range                              : Limited
Matrix coefficients                      : BT.709
Menus                                    : 5

Audio #1
ID                                       : 2
Format                                   : AAC
Format/Info                              : Advanced Audio Codec
Format profile                           : LC
Codec ID                                 : 40
Duration                                 : 1 h 50 min
Source duration                          : 1 h 50 min
Bit rate mode                            : Variable
Nominal bit rate                         : 160 kb/s
Maximum bit rate                         : 166 kb/s
Channel(s)                               : 2 channels
Channel positions                        : Front: L R
Sampling rate                            : 48.0 kHz
Frame rate                               : 46.875 FPS (1024 spf)
Compression mode                         : Lossy
Source stream size                       : 127 MiB (6%)
Language                                 : Russian
Default                                  : Yes
Alternate group                          : 1
Encoded date                             : UTC 2017-03-11 17:55:30
Tagged date                              : UTC 2017-03-11 18:00:48

Audio #2
ID                                       : 3
Format                                   : AAC
Format/Info                              : Advanced Audio Codec
Format profile                           : LC
Codec ID                                 : 40
Duration                                 : 1 h 50 min
Source duration                          : 1 h 50 min
Bit rate mode                            : Variable
Nominal bit rate                         : 160 kb/s
Maximum bit rate                         : 166 kb/s
Channel(s)                               : 2 channels
Channel positions                        : Front: L R
Sampling rate                            : 48.0 kHz
Frame rate                               : 46.875 FPS (1024 spf)
Compression mode                         : Lossy
Source stream size                       : 127 MiB (6%)
Language                                 : English
Default                                  : No
Alternate group                          : 1
Encoded date                             : UTC 2017-03-11 17:55:30
Tagged date                              : UTC 2017-03-11 18:00:48

Text
ID                                       : 4
Format                                   : Timed Text
Muxing mode                              : sbtl
Codec ID                                 : tx3g
Duration                                 : 1 h 35 min
Bit rate mode                            : Variable
Bit rate                                 : 49 b/s
Stream size                              : 34.3 KiB (0%)
Language                                 : Russian
Default                                  : Yes
Forced                                   : No
Alternate group                          : 2
Encoded date                             : UTC 2017-03-11 17:55:30
Tagged date                              : UTC 2017-03-11 18:00:48

Menu
ID                                       : 5
Codec ID                                 : text
Duration                                 : 1 h 50 min
Language                                 : English
Encoded date                             : UTC 2017-03-11 18:00:48
Tagged date                              : UTC 2017-03-11 18:00:48
Bit rate mode                            : CBR
Menu For                                 : 1
Duration_LastFrame                       : -556000
00:00:00.000                             : Chapter 1
00:15:00.000                             : Chapter 2
00:30:00.000                             : Chapter 3
00:45:00.000                             : Chapter 4
01:00:00.000                             : Chapter 5
01:15:00.000                             : Chapter 6
01:30:00.000                             : Chapter 7
01:45:00.000                             : Chapter 8


Скриншоты:



Время раздачи: 24/7 (круглосуточно) (до появления первых 3-5 скачавших)
 
Не забывайте говорить Спасибо. Не уходите с раздачи!   
Торрент: Зарегистрирован [11 мар 2017, 23:45] Для скачивания .torrent
необходима регистрация
Или скачать с помощью
MediaGet
Статус:
Проверен
 
.torrent скачан: 0 раз
Хэш: fc7653f09681e3687a635286a1b816fd5ddfd1a5
Размер: 1.97 ГБ (2 112 021 099 байт)
Стать Автором раздачи
 
 
Раздал: 100 ГБ
Скачал: 0 байт
Ратио: Seed.
Сообщения: 29984
Зарегистрирован: 09 апр 2015, 23:02


  • Похожие торренты
    Ответы
    Просмотры
    Последнее сообщение

Вернуться в Видео для мобильных устройств

Ресурс не предоставляет электронные версии произведений, а занимается лишь коллекционированием и каталогизацией ссылок, присылаемых и публикуемых на форуме нашими читателями. Если вы являетесь правообладателем какого-либо представленного материала и не желаете чтобы ссылка на него находилась в нашем каталоге, свяжитесь с нами и мы незамедлительно удалим её. Файлы для обмена на трекере предоставлены пользователями сайта, и администрация не несёт ответственности за их содержание. Просьба не заливать файлы, защищенные авторскими правами, а также файлы нелегального содержания!
cron