Sennheiser - Die Unendliche Halle (Test-CD) - 1985, FLAC (image+.cue), lossless

 
 Статистика раздачи 
Размер: 138.79 МБ   |  Зарегистрирован: 10 мар 2017, 22:18   |   .torrent скачан: 0 раз
Сидеров: 2  [ 0 байт/сек ]     Личеров: 1  [ 0 байт/сек ]  
  

Sennheiser - Die Unendliche Halle (Test-CD) - 1985, FLAC (image+.cue), lossless

Сообщение Lester » 10 мар 2017, 22:18

Sennheiser / Die Unendliche Halle


Жанр: Test CD
Аудио: 16/44.1 / Stereo

Номер по каталогу: SE CD 185
Матрица диска: SECD185 508029 MANUFACTURED BY SANYO JAPAN
Тип рипа: image+.cue
Режим рипа: test & copy
Битрейт аудио: lossless
Продолжительность: 00:46:30

Производитель: SENNHEISER (Manufactured by Sanyo Japan)
Сайт производителя: SENNHEISER

Год выпуска: 1985
Источник (релизер): sewerok

Треклист:
01. Die Unendliche Halle 1 [0:05:16.35]
02. Die Unendliche Halle 2 [0:34:07.45]
03. Die Unendliche Halle 3 [0:07:05.57]
Код: Выделить всё
Exact Audio Copy V1.0 beta 4 from 7. December 2014

EAC extraction logfile from 10. March 2017, 19:17

Sennheiser / Die Unendliche Halle

Used drive  : MATSHITABD-CMB UJ172 S   Adapter: 1  ID: 0

Read mode               : Secure
Utilize accurate stream : Yes
Defeat audio cache      : Yes
Make use of C2 pointers : No

Read offset correction                      : 103
Overread into Lead-In and Lead-Out          : No
Fill up missing offset samples with silence : Yes
Delete leading and trailing silent blocks   : No
Null samples used in CRC calculations       : Yes
Used interface                              : Native Win32 interface for Win NT & 2000

Used output format              : User Defined Encoder
Selected bitrate                : 768 kBit/s
Quality                         : High
Add ID3 tag                     : No
Command line compressor         : C:\Program Files (x86)\Exact Audio Copy\Flac\flac.exe
Additional command line options : -7 -V -T "Date=%year%" -T "Genre=%genre%" -T "COMMENT=ripped by sewerok®" %source%

TOC of the extracted CD

     Track |   Start  |  Length  | Start sector | End sector
    ---------------------------------------------------------
        1  |  0:00.00 |  5:16.35 |         0    |    23734
        2  |  5:16.35 | 34:07.45 |     23735    |   177304
        3  | 39:24.05 |  7:05.57 |    177305    |   209236

Range status and errors

Selected range

     Filename E:\Sennheiser - Die Unendliche Halle [1985](SE CD 185 Japan-Germany)\Sennheiser - Die Unendliche Halle.wav

     Peak level 91.9 %
     Extraction speed 4.0 X
     Range quality 100.0 %
     Test CRC 2D9B0A8F
     Copy CRC 2D9B0A8F
     Copy OK

No errors occurred

AccurateRip summary

Track  1  accurately ripped (confidence 2)  [AD0FD957]  (AR v2)
Track  2  accurately ripped (confidence 2)  [7D8E4E23]  (AR v2)
Track  3  accurately ripped (confidence 2)  [CCB068D2]  (AR v2)

All tracks accurately ripped

End of status report

---- CUETools DB Plugin V2.1.5

[CTDB TOCID: WJHlBLnjt78_kMtN_Y3rFJhxERc-] found
Submit result: WJHlBLnjt78_kMtN_Y3rFJhxERc- has been confirmed
Track | CTDB Status
  1   | (4/4) Accurately ripped
  2   | (4/4) Accurately ripped
  3   | (4/4) Accurately ripped

==== Log checksum 5FF6C63E6164F5240ED6B827DD244DDACD13F65272BD63CD5C4E13CD0EE39C95 ====
Код: Выделить всё
[CUETools log; Date: 10.03.2017 19:25:49; Version: 2.1.5]
[CTDB TOCID: WJHlBLnjt78_kMtN_Y3rFJhxERc-] found.
Track | CTDB Status
  1   | (5/5) Accurately ripped
  2   | (5/5) Accurately ripped
  3   | (5/5) Accurately ripped
[AccurateRip ID: 000642a5-00159c8e-1f0ae503] found.
Track   [  CRC   |   V2   ] Status
 01     [9b8fe2ca|ad0fd957] (0+2/2) Accurately ripped
 02     [4d7fb3f3|7d8e4e23] (0+2/2) Accurately ripped
 03     [a13798ba|ccb068d2] (0+2/2) Accurately ripped

Track Peak [ CRC32  ] [W/O NULL] [  LOG   ]
 --   91,9 [2D9B0A8F] [911E5130]   CRC32
 01   63,7 [DE25AB5B] [62CD9326]
 02   91,9 [3D03D5F8] [275E9DC1]
 03   42,2 [EFB26F98] [306F8B88]




 
Не забывайте говорить Спасибо. Не уходите с раздачи!   
Торрент: Зарегистрирован [10 мар 2017, 22:18] Для скачивания .torrent
необходима регистрация
Или скачать с помощью
MediaGet
Статус:
Проверен
 
.torrent скачан: 0 раз
Хэш: 82c31c4751bb7313c905093b5324a7e10eff7c8c
Размер: 138.79 МБ (145 532 619 байт)
Стать Автором раздачи
 
 
Раздал: 100 ГБ
Скачал: 0 байт
Ратио: Seed.
Сообщения: 103531
Зарегистрирован: 09 апр 2015, 23:00


  • Похожие торренты
    Ответы
    Просмотры
    Последнее сообщение

Вернуться в Тестовые диски для настройки аудио/видео аппаратуры

Кто сейчас на конференции

Сейчас эту тему просматривают: нет зарегистрированных пользователей и гости: 1

Ресурс не предоставляет электронные версии произведений, а занимается лишь коллекционированием и каталогизацией ссылок, присылаемых и публикуемых на форуме нашими читателями. Если вы являетесь правообладателем какого-либо представленного материала и не желаете чтобы ссылка на него находилась в нашем каталоге, свяжитесь с нами и мы незамедлительно удалим её. Файлы для обмена на трекере предоставлены пользователями сайта, и администрация не несёт ответственности за их содержание. Просьба не заливать файлы, защищенные авторскими правами, а также файлы нелегального содержания!