Душитель из башни / Der Wurger vom Tower (Ханс Мерингер / Hans Mehringer) [1966, Германия (ФРГ), триллер, DVDRip] Sub Rus (Антон Каптелов) + Original Ger

 
 Статистика раздачи 
Размер: 1.35 ГБ   |  Зарегистрирован: 10 мар 2017, 15:28   |   .torrent скачан: 0 раз
Сидеров: 1  [ 0 байт/сек ]     Личеров: 0  [ 0 байт/сек ]  
  

Душитель из башни / Der Wurger vom Tower (Ханс Мерингер / Hans Mehringer) [1966, Германия (ФРГ), триллер, DVDRip] Sub Rus (Антон Каптелов) + Original Ger

Сообщение Lester » 10 мар 2017, 15:28

Душитель из башни / Der Wurger vom Tower
Страна: Германия (ФРГ)
Жанр: триллер
Год выпуска: 1966
Продолжительность: 01:17:17

Перевод: Субтитры Антон Каптелов
Cубтитры: русские
Оригинальная аудиодорожка: немецкий

Режиссер: Ханс Мерингер / Hans Mehringer

В ролях: Шарль Ренье, Ади Бербер, Биргит Берген, Райнер Бертрам, Кай Фишер, Иниго Галло, Герхард Гейслер, Эди Хубер

Описание: Богатая миссис Уилкинс найдена убитой и у нее похищено ожерелье с бесценным изумрудом. Полиция подозревает в преступлении неуловимого серийного убийцу, прозванного "Душителем из башни". Харви, один из лучших инспекторов Скотланд-Ярда, начинает расследование и выходит на след таинственной организации, именующей себя "Братством Карающего Правосудия"...

Доп. информация: Сценаристом и продюсером фильма выступил маэстро эротического жанра Эрвин С. Дитрих.

Сэмпл: http://multi-up.com/1144491

Качество видео: DVDRip (рип найден в сети)
Формат видео: AVI

Видео: 688x512 (1.34:1), 25.000 fps, XviD build 67 ~2303 kbps avg, 0.26 bit/pixel
Аудио: 48 kHz, AC3 Dolby Digital, 2/0 (L,R) ch, ~192 kbps
Формат субтитров: softsub (SRT)
Релиз:
Формат : AVI
Формат/Информация : Audio Video Interleave
Размер файла : 1,35 Гбайт
Продолжительность : 1 ч. 17 м.
Общий поток : 2505 Кбит/сек

Видео
Идентификатор : 0
Формат : MPEG-4 Visual
Профиль формата : Advanced Simple@L5
Параметр BVOP формата : 2
Параметр QPel формата : Нет
Параметр GMC формата : Без точки перехода
Параметр матрицы формата : Default (MPEG)
Идентификатор кодека : XVID
Идентификатор кодека/Подсказка : XviD
Продолжительность : 1 ч. 17 м.
Битрейт : 2303 Кбит/сек
Ширина : 688 пикселей
Высота : 512 пикселей
Соотношение сторон : 4:3
Частота кадров : 25,000 кадров/сек
Цветовое пространство : YUV
Субдискретизация насыщенности : 4:2:0
Битовая глубина : 8 бит
Тип развёртки : Прогрессивная
Метод сжатия : С потерями
Бит/(Пиксели*Кадры) : 0.262
Размер потока : 1,24 Гбайт (92%)
Библиотека кодирования : XviD 67

Аудио
Идентификатор : 1
Формат : AC-3
Формат/Информация : Audio Coding 3
Расширение режима : CM (complete main)
Параметр Endianness формата : Big
Идентификатор кодека : 2000
Продолжительность : 1 ч. 17 м.
Вид битрейта : Постоянный
Битрейт : 192 Кбит/сек
Каналы : 2 канала
Расположение каналов : Front: L R
Частота : 48,0 КГц
Частота кадров : 31,250 кадров/сек (1536 spf)
Метод сжатия : С потерями
Размер потока : 106 Мбайт (8%)
Выравнивание : Соединение по промежуткам
Продолжительность промежутка : 40 мс. (1,00 видеокадр)
Время предзагрузки промежутка : 512 мс.



36
00:07:02,445 --> 00:07:03,805
Гарри!

37
00:07:13,980 --> 00:07:15,923
Снимки с места преступления, инспектор.

38
00:07:16,435 --> 00:07:19,773
Милая и очаровательная женщина
эта миссис Уилкинс.

39
00:07:20,113 --> 00:07:21,484
Да.

40
00:07:21,891 --> 00:07:23,668
Не можете глаз отвести?

41
00:07:23,780 --> 00:07:26,079
Простите! Это всего лишь работа.

42
00:07:27,020 --> 00:07:29,687
И я нахожу очень трагичным,
что всего лишь по работе...

43
00:07:29,905 --> 00:07:33,375
...нам доводится иметь дело
с красивыми женщинами, если позволите
так выразиться.

44
00:07:33,550 --> 00:07:35,811
И в большинстве случаев -
когда они уже мертвы.

45
00:07:38,020 --> 00:07:39,827
Да? Инспектор Харви...

46
00:07:40,321 --> 00:07:41,735
Ах, Брайан!

47
00:07:44,113 --> 00:07:46,111
Да... Спасибо!

48
00:07:47,300 --> 00:07:50,539
Судя по результатам вскрытия,
мы имеем дело с Душителем.

49
00:07:50,653 --> 00:07:52,543
- Кто же он?
- К сожалению, мы пока не знаем.

50
00:07:52,660 --> 00:07:55,116
Последние убийства он совершил
больше года назад.

51
00:07:55,180 --> 00:07:56,879
Хорошо, что вас здесь не было.

52
00:07:57,009 --> 00:07:59,117
Парень действительно
заставил нас побегать.

53
00:07:59,204 --> 00:08:02,309
- Серийный убийца?
- Возможно, наемный убийца.

54
00:08:02,392 --> 00:08:03,759
К сожалению, еще не знаем.

55
00:08:03,860 --> 00:08:06,953
- А есть представление, как он выглядит?
- Ни малейшего!

56
00:08:07,327 --> 00:08:10,453
Как только мы думали, что его поймали,
следы его затерялись на пути к башне.
Огромное спасибо Антону Каптелову за перевод фильма!
 
Не забывайте говорить Спасибо. Не уходите с раздачи!   
Торрент: Зарегистрирован [10 мар 2017, 15:28] Скачать торрент
Скачать торрент
[ Размер 14.07 КБ / Просмотров 22 ]
Статус:
Проверен
 
.torrent скачан: 0 раз
Хэш: 130afb7ea4c72aed3900edf480bd7ba904a86a31
Размер: 1.35 ГБ (1 452 185 362 байт)
Стать Автором раздачи
 
 
Раздал: 100 ГБ
Скачал: 0 байт
Ратио: Seed.
Сообщения: 122987
Зарегистрирован: 09 апр 2015, 23:00


  • Похожие торренты
    Ответы
    Просмотры
    Последнее сообщение

Вернуться в Зарубежное кино

Ресурс не предоставляет электронные версии произведений, а занимается лишь коллекционированием и каталогизацией ссылок, присылаемых и публикуемых на форуме нашими читателями. Если вы являетесь правообладателем какого-либо представленного материала и не желаете чтобы ссылка на него находилась в нашем каталоге, свяжитесь с нами и мы незамедлительно удалим её. Файлы для обмена на трекере предоставлены пользователями сайта, и администрация не несёт ответственности за их содержание. Просьба не заливать файлы, защищенные авторскими правами, а также файлы нелегального содержания!
cron