Люди Икс: Дни минувшего будущего / X-Men: Days of Future Past (2014) BDRip [H.265/2160p] [4K]

 
 Статистика раздачи 
Размер: 29.03 ГБ   |  Зарегистрирован: 12 фев 2017, 14:29   |   .torrent скачан: 0 раз
Сидеров: 1  [ 0 байт/сек ]     Личеров: 0  [ 0 байт/сек ]  
  

Люди Икс: Дни минувшего будущего / X-Men: Days of Future Past (2014) BDRip [H.265/2160p] [4K]

Сообщение bagouser » 12 фев 2017, 14:29

Люди Икс: Дни минувшего будущего / X-Men: Days of Future Past (2014) BDRip

Производство: США, Великобритания, Канада, 20th Century Fox, Marvel Entertainment, Bad Hat Harry Productions, The Donners' Company
Жанр: Фантастика, Фэнтези, Боевик, Триллер

Режиссер: Брайан Сингер
Актеры: Джеймс МакЭвой, Майкл Фассбендер, Хью Джекман, Дженнифер Лоуренс, Николас Холт, Питер Динклэйдж, Иэн МакКеллен, Патрик Стюарт, Эллен Пейдж, Холли Берри

Описание:
В недалёком будущем мутанты близки к истреблению роботами-охотниками на мутантов Стражами. Единственная надежда для мутантов выжить — предотвратить череду роковых событий, приведших к появлению Стражей. С помощью своих способностей, Китти Прайд перемещает сознание Росомахи в его молодое тело в 1973 год. В прошлом всё оказывается не так радужно: молодой Профессор Икс окончательно разочарован в своих идеях, Магнето содержится в тюрьме глубоко под землёй, а человечество не знает как реагировать на широкое появление мутантов…



Возраст: 12+ (зрителям, достигшим 12 лет)
Рейтинг MPAA: PG-13 (детям до 13 лет просмотр нежелателен)
Дата выхода DVD/Blu-ray релиза: 02.10.2014

Релиз от: Zeus-n-Duke

Продолжительность: 02:11:23
Качество видео: BDRip (2160p)
Перевод: Дублированный
Субтитры: Отсутствуют

Видео: HEVC/H.265, 3840x1600, ~24.9 Mbps
Аудио #1: DTS, 6 ch, 768 Kbps, 48.0 kHz - Русский
Аудио #2: AC3, 6 ch, 448 Kbps, 48.0 kHz - Украинский
Аудио #3: DTS, 8 ch, 5 490 Kbps, 48.0 kHz - Английский
Код: Выделить всё
General
Unique ID                   : 200477279005341182452261409624210908627 (0x96D284FCADAA5AA2881880B09F45A5D3)
Complete name               : \X-Men Days of Future Past (2014) 2160p UltraHD BluRay HEVC.mkv
Format                      : Matroska
Format version              : Version 4 / Version 2
File size                   : 29.0 GiB
Duration                    : 2 h 11 min
Overall bit rate            : 31.6 Mb/s
Movie name                  : X-MEN__DAYS_OF_FUTURE_PAST.Title800
Encoded date                : UTC 2017-02-11 14:21:49
Writing application         : mkvmerge v9.8.0 ('Kuglblids') 64bit
Writing library             : libebml v1.3.4 + libmatroska v1.4.5

Video
ID                          : 1
Format                      : HEVC
Format/Info                 : High Efficiency Video Coding
Format profile              : Main@L5@Main
Codec ID                    : V_MPEGH/ISO/HEVC
Duration                    : 2 h 11 min
Bit rate                    : 24.9 Mb/s
Width                       : 3 840 pixels
Height                      : 1 600 pixels
Display aspect ratio        : 2.40:1
Frame rate mode             : Constant
Frame rate                  : 23.976 (24000/1001) FPS
Color space                 : YUV
Chroma subsampling          : 4:2:0
Bit depth                   : 8 bits
Bits/(Pixel*Frame)          : 0.169
Stream size                 : 22.9 GiB (79%)
Writing library             : x265 1.9:[Windows][GCC 4.9.0][64 bit] 8bit
Encoding settings           : wpp / ctu=64 / min-cu-size=8 / max-tu-size=32 / tu-intra-depth=1 / tu-inter-depth=1 / me=1 / subme=2 / merange=57 / no-rect / no-amp / max-merge=2 / temporal-mvp / no-early-skip / rdpenalty=0 / no-tskip / no-tskip-fast / strong-intra-smoothing / no-lossless / no-cu-lossless / no-constrained-intra / no-fast-intra / open-gop / no-temporal-layers / interlace=0 / keyint=240 / min-keyint=24 / scenecut=40 / rc-lookahead=20 / lookahead-slices=8 / bframes=4 / bframe-bias=0 / b-adapt=2 / ref=3 / limit-refs=3 / no-limit-modes / weightp / no-weightb / aq-mode=1 / qg-size=32 / aq-strength=1.00 / cbqpoffs=0 / crqpoffs=0 / rd=3 / psy-rd=2.00 / rdoq-level=0 / psy-rdoq=0.00 / signhide / deblock / sao / no-sao-non-deblock / b-pyramid / cutree / no-intra-refresh / rc=abr / bitrate=25000 / qcomp=0.60 / qpmin=0 / qpmax=51 / qpstep=4 / ipratio=1.40 / pbratio=1.30
Default                     : Yes
Forced                      : No
Color range                 : Limited
Color primaries             : BT.709
Transfer characteristics    : BT.709
Matrix coefficients         : BT.709

Audio #1
ID                          : 2
Format                      : DTS
Format/Info                 : Digital Theater Systems
Mode                        : 16
Format settings, Endianness : Big
Codec ID                    : A_DTS
Duration                    : 2 h 11 min
Bit rate mode               : Constant
Bit rate                    : 768 kb/s
Channel(s)                  : 6 channels
Channel positions           : Front: L C R, Side: L R, LFE
Sampling rate               : 48.0 kHz
Frame rate                  : 93.750 FPS (512 spf)
Bit depth                   : 24 bits
Compression mode            : Lossy
Delay relative to video     : 967 ms
Stream size                 : 723 MiB (2%)
Title                       : Русский
Language                    : Russian
Default                     : Yes
Forced                      : No

Audio #2
ID                          : 3
Format                      : AC-3
Format/Info                 : Audio Coding 3
Mode extension              : CM (complete main)
Format settings, Endianness : Big
Codec ID                    : A_AC3
Duration                    : 2 h 11 min
Bit rate mode               : Constant
Bit rate                    : 448 kb/s
Channel(s)                  : 6 channels
Channel positions           : Front: L C R, Side: L R, LFE
Sampling rate               : 48.0 kHz
Frame rate                  : 31.250 FPS (1536 spf)
Bit depth                   : 16 bits
Compression mode            : Lossy
Delay relative to video     : 967 ms
Stream size                 : 422 MiB (1%)
Title                       : Украинский
Language                    : Ukrainian
Default                     : No
Forced                      : No

Audio #3
ID                          : 4
Format                      : DTS
Format/Info                 : Digital Theater Systems
Format profile              : MA / ES Matrix / Core
Mode                        : 16
Format settings, Endianness : Big
Codec ID                    : A_DTS
Duration                    : 2 h 11 min
Bit rate mode               : Variable / Constant / Constant
Bit rate                    : 5 490 kb/s / 1 509 kb/s / 1 509 kb/s
Channel(s)                  : 8 channels / 7 channels / 6 channels
Channel positions           : Front: L C R, Side: L R, Back: L R, LFE / Front: L C R, Side: L R, Back: C, LFE / Front: L C R, Side: L R, LFE
Sampling rate               : 48.0 kHz
Frame rate                  : 93.750 FPS (512 spf)
Bit depth                   : 24 bits
Compression mode            : Lossless / Lossy / Lossy
Delay relative to video     : 967 ms
Stream size                 : 5.05 GiB (17%)
Title                       : Английский
Language                    : English
Default                     : No
Forced                      : No

Скриншоты:




Время раздачи: 24/7 (до появления первых 3-5 скачавших)
 
Не забывайте говорить Спасибо. Не уходите с раздачи!   
Торрент: Зарегистрирован [12 фев 2017, 14:29] Для скачивания .torrent
необходима регистрация
Или скачать с помощью
MediaGet
Статус:
Проверен
 
.torrent скачан: 0 раз
Хэш: 065d2f22571ca20c97c17410f86aecf8ccccc512
Размер: 29.03 ГБ (31 168 556 535 байт)
Стать Автором раздачи
 
Аватара пользователя
 
Раздал: 3.77 ТБ
Скачал: 406.3 ГБ
Ратио: 9.496
Сообщения: 468704
Зарегистрирован: 20 янв 2011, 21:15


  • Похожие торренты
    Ответы
    Просмотры
    Последнее сообщение

Вернуться в Зарубежные фильмы (HD Video)

Ресурс не предоставляет электронные версии произведений, а занимается лишь коллекционированием и каталогизацией ссылок, присылаемых и публикуемых на форуме нашими читателями. Если вы являетесь правообладателем какого-либо представленного материала и не желаете чтобы ссылка на него находилась в нашем каталоге, свяжитесь с нами и мы незамедлительно удалим её. Файлы для обмена на трекере предоставлены пользователями сайта, и администрация не несёт ответственности за их содержание. Просьба не заливать файлы, защищенные авторскими правами, а также файлы нелегального содержания!
cron