Неизвестная / La fille inconnue / The Unknown Girl (2016) HDRip [H.264] [MP4|1024x552]

 
 Статистика раздачи 
Размер: 1.95 ГБ   |  Зарегистрирован: 12 фев 2017, 14:25   |   .torrent скачан: 0 раз
Сидеров: 3  [ 0 байт/сек ]     Личеров: 1  [ 0 байт/сек ]  
  

Неизвестная / La fille inconnue / The Unknown Girl (2016) HDRip [H.264] [MP4|1024x552]

Сообщение bagouser » 12 фев 2017, 14:25

Неизвестная / La fille inconnue / The Unknown Girl (2016) HDRip


Производство: Бельгия, Франция, Les Films du Fleuve, Archipel 35, Savage Film
Жанр: Триллер, Драма, Криминал

Режиссер: Жан-Пьер Дарденн, Люк Дарденн
Актеры: Адель Энель, Оливье Бонно, Жереми Ренье, Лука Миннелли, Кристель Корнил, Надеж Уэдраого, Оливье Гурме, Пьер Сумкай, Ив Ларек, Бен Хамиду

Описание:
Однажды вечером, закончив прием пациентов, Женни решает не открывать дверь позднему посетителю ее хирургического кабинета. На следующий день полиция информирует ее о том, что неподалеку было найдено тело неизвестной девушки. Испытывая тайные угрызения совести, Женни пытается самостоятельно установить личность незнакомки…



Возраст: 18+ (зрителям, достигшим 18 лет. запрещено для детей)

Релиз от: NNMClub
Продолжительность: 01:46:09
Качество видео: HDRip
Перевод: Многоголосый закадровый
Озвучка / Автор перевода: iTunes
Вид субтитров: Вшитые отключаемые
Язык субтитров: Английский

Видео: AVC/H.264 (Main@L3.1), 1024x552 (1.85:1), 24.000 fps, 2 300 Kbps
Аудио #1: AAC LC, 48.0 KHz, 2 ch, 160 Kbps, VBR (русский)
Аудио #2: AAC LC, 48.0 KHz, 2 ch, 160 Kbps, VBR (французский)
Код:
General
Complete name                            : C:\DGI\La.fille.inconnue.2016.576p.HDRip.AAC.x264.NNMclub.mp4
Format                                   : MPEG-4
Format profile                           : Base Media / Version 2
Codec ID                                 : mp42 (mp42/isom)
File size                                : 1.95 GiB
Duration                                 : 1 h 46 min
Overall bit rate mode                    : Variable
Overall bit rate                         : 2 628 kb/s
Movie name                               : The Unknown Girl
Performer                                : Jean-Pierre Dardenne, Luc Dardenne
Director                                 : Jean-Pierre Dardenne / Luc Dardenne
Actor                                    : Adèle Haenel / Olivier Bonnaud / Louka Minnella / Jérémie Renier / Olivier Gourmet / Fabrizio Rongione / Thomas Doret / Christelle Cornil
Screenplay by                            : Jean-Pierre Dardenne / Luc Dardenne
Producer                                 : Jean-Pierre Dardenne / Luc Dardenne / Denis Freyd
Production studio                        : France 2 Cinéma, Eurimages, Les Films Du Fleuve, Archipel 35, Vlaams Audiovisueel fonds, Canal+, Savage Film, Radio Télévision Belge Francophone (RTBF), Ciné+, France Télévisions, Centre du Cinéma et de l'Audiovisuel de la Fédération Wallonie-Bruxelles, VOO, Le Tax Shelter du Gouvernement Fédéral de Belgique, Casa Kafka Pictures, BE TV, La Wallonie
Genre                                    : Thriller, Drama, Crime
ContentType                              : Short Film
Description                              : Jenny, a young doctor who feels guilty after a young woman she refused to see winds up dead a few days later, decides to find out who the girl was, after the police can't identify the young woman.
Recorded date                            : 2016-10-12
Encoded date                             : UTC 2017-02-11 12:12:56
Tagged date                              : UTC 2017-02-11 12:22:11
Cover                                    : Yes
LongDescription                          : Jenny, a young doctor who feels guilty after a young woman she refused to see winds up dead a few days later, decides to find out who the girl was, after the police can't identify the young woman.

Video
ID                                       : 1
Format                                   : AVC
Format/Info                              : Advanced Video Codec
Format profile                           :
Format settings, CABAC                   : Yes
Format settings, ReFrames                : 3 frames
Codec ID                                 : avc1
Codec ID/Info                            : Advanced Video Coding
Duration                                 : 1 h 46 min
Bit rate                                 : 2 300 kb/s
Width                                    : 1 024 pixels
Height                                   : 552 pixels
Display aspect ratio                     : 1.85:1
Frame rate mode                          : Variable
Frame rate                               : 24.000 FPS
Minimum frame rate                       : 23.810 FPS
Maximum frame rate                       : 24.390 FPS
Color space                              : YUV
Chroma subsampling                       : 4:2:0
Bit depth                                : 8 bits
Scan type                                : Progressive
Bits/(Pixel*Frame)                       : 0.170
Stream size                              : 1.71 GiB (88%)
Writing library                          : x264 core 148 r2744+55 950084e t_mod_Custom [8-bit@all X86_64]
Encoding settings                        : cabac=1 / ref=3 / deblock=1:-1:-1 / analyse=0x1:0x111 / me=umh / subme=7 / psy=1 / fade_compensate=0.00 / psy_rd=1.00:0.10 / mixed_ref=1 / me_range=32 / chroma_me=1 / trellis=2 / 8x8dct=0 / cqm=0 / deadzone=21,11 / fast_pskip=0 / chroma_qp_offset=-3 / threads=12 / lookahead_threads=2 / sliced_threads=0 / nr=0 / decimate=0 / interlaced=0 / bluray_compat=0 / constrained_intra=0 / fgo=0 / bframes=3 / b_pyramid=1 / b_adapt=2 / b_bias=0 / direct=3 / weightb=1 / open_gop=0 / weightp=2 / keyint=240 / keyint_min=24 / scenecut=40 / intra_refresh=0 / rc_lookahead=50 / rc=2pass / mbtree=1 / bitrate=2300 / ratetol=1.0 / qcomp=0.60 / qpmin=0:0:0 / qpmax=69:69:69 / qpstep=4 / cplxblur=20.0 / qblur=0.5 / vbv_maxrate=10000 / vbv_bufsize=10000 / nal_hrd=none / filler=0 / ip_ratio=1.40 / aq=3:0.90 / aq-sensitivity=10.00 / aq-factor=1.00:1.00:1.00 / aq2=1:0.90 / aq2-sensitivity=15.00 / aq2-factor=1.00:1.00:1.00 / aq3=4:[0.50:0.50]:[0.50:0.50]:[0.50:0.50]:[0.50:0.50] / aq3-sensitivity=10.00 / aq3-factor=[1.00:1.00]:[1.00:1.00]:[1.00:1.00] / aq3-boundary=192:64:24
Encoded date                             : UTC 2017-02-11 12:12:56
Tagged date                              : UTC 2017-02-11 12:22:11
Color range                              : Limited
Color primaries                          : BT.709
Transfer characteristics                 : BT.709
Matrix coefficients                      : BT.709
Menus                                    : 5

Audio #1
ID                                       : 2
Format                                   : AAC
Format/Info                              : Advanced Audio Codec
Format profile                           : LC
Codec ID                                 : 40
Duration                                 : 1 h 45 min
Source duration                          : 1 h 45 min
Bit rate mode                            : Variable
Nominal bit rate                         : 160 kb/s
Maximum bit rate                         : 165 kb/s
Channel(s)                               : 2 channels
Channel positions                        : Front: L R
Sampling rate                            : 48.0 kHz
Frame rate                               : 46.875 FPS (1024 spf)
Compression mode                         : Lossy
Source stream size                       : 121 MiB (6%)
Language                                 : Russian
Default                                  : Yes
Alternate group                          : 1
Encoded date                             : UTC 2017-02-11 12:12:56
Tagged date                              : UTC 2017-02-11 12:22:11

Audio #2
ID                                       : 3
Format                                   : AAC
Format/Info                              : Advanced Audio Codec
Format profile                           : LC
Codec ID                                 : 40
Duration                                 : 1 h 46 min
Source duration                          : 1 h 46 min
Bit rate mode                            : Variable
Nominal bit rate                         : 160 kb/s
Maximum bit rate                         : 165 kb/s
Channel(s)                               : 2 channels
Channel positions                        : Front: L R
Sampling rate                            : 48.0 kHz
Frame rate                               : 46.875 FPS (1024 spf)
Compression mode                         : Lossy
Source stream size                       : 121 MiB (6%)
Language                                 : French
Default                                  : No
Alternate group                          : 1
Encoded date                             : UTC 2017-02-11 12:12:56
Tagged date                              : UTC 2017-02-11 12:22:11

Text
ID                                       : 4
Format                                   : Timed Text
Muxing mode                              : sbtl
Codec ID                                 : tx3g
Duration                                 : 1 h 42 min
Bit rate mode                            : Variable
Bit rate                                 : 45 b/s
Stream size                              : 33.7 KiB (0%)
Language                                 : English
Default                                  : Yes
Forced                                   : No
Alternate group                          : 2
Encoded date                             : UTC 2017-02-11 12:12:56
Tagged date                              : UTC 2017-02-11 12:22:11

Menu
ID                                       : 5
Codec ID                                 : text
Duration                                 : 1 h 46 min
Language                                 : English
Encoded date                             : UTC 2017-02-11 12:22:11
Tagged date                              : UTC 2017-02-11 12:22:11
Bit rate mode                            : CBR
Menu For                                 : 1
00:00:00.000                             : 00:00:00.000
00:06:52.083                             : 00:06:52.083
00:16:59.375                             : 00:16:59.375
00:22:53.958                             : 00:22:53.958
00:33:48.000                             : 00:33:48.000
00:44:33.750                             : 00:44:33.750
00:53:10.458                             : 00:53:10.458
01:02:08.458                             : 01:02:08.458
01:08:15.417                             : 01:08:15.417
01:17:15.167                             : 01:17:15.167
01:27:37.792                             : 01:27:37.792
01:42:51.292                             : 01:42:51.292


Скриншоты:



Время раздачи: 24/7 (круглосуточно) (до появления первых 3-5 скачавших)
 
Не забывайте говорить Спасибо. Не уходите с раздачи!   
Торрент: Зарегистрирован [12 фев 2017, 14:25] Для скачивания .torrent
необходима регистрация
Или скачать с помощью
MediaGet
Статус:
Проверен
 
.torrent скачан: 0 раз
Хэш: 063588060f0ff3a6b2ec96f21c395f6829179451
Размер: 1.95 ГБ (2 092 376 414 байт)
Стать Автором раздачи
 
Аватара пользователя
 
Раздал: 3.77 ТБ
Скачал: 406.3 ГБ
Ратио: 9.496
Сообщения: 468702
Зарегистрирован: 20 янв 2011, 21:15


  • Похожие торренты
    Ответы
    Просмотры
    Последнее сообщение

Вернуться в Видео для мобильных устройств

Ресурс не предоставляет электронные версии произведений, а занимается лишь коллекционированием и каталогизацией ссылок, присылаемых и публикуемых на форуме нашими читателями. Если вы являетесь правообладателем какого-либо представленного материала и не желаете чтобы ссылка на него находилась в нашем каталоге, свяжитесь с нами и мы незамедлительно удалим её. Файлы для обмена на трекере предоставлены пользователями сайта, и администрация не несёт ответственности за их содержание. Просьба не заливать файлы, защищенные авторскими правами, а также файлы нелегального содержания!
cron