Стрела / Arrow (2016) WEB-DL [H.264] (сезон 5, серии 1-12 из 23) LostFilm [MP4|1280x718]

 
 Статистика раздачи 
Размер: 15.85 ГБ   |  Зарегистрирован: 12 фев 2017, 14:00   |   .torrent скачан: 0 раз
Сидеров: 1  [ 0 байт/сек ]     Личеров: 0  [ 0 байт/сек ]  
  

Стрела / Arrow (2016) WEB-DL [H.264] (сезон 5, серии 1-12 из 23) LostFilm [MP4|1280x718]

Сообщение bagouser » 12 фев 2017, 14:01

Стрела / Arrow (2016) WEB-DL 720p (сезон 5, серии 1-12 из 23) LostFilm

«Судьба оставляет свой отпечаток»
Производство: США
Жанр: боевик, приключения, криминал

Режиссер: Дэвид Баррет, Дэвид Наттер
Актеры: Стивен Амелл, Эмили Бетт Рикардс, Кэти Кэссиди, Уилла Холлэнд, Джейми Шеридан, Жаклин МакИннес Вуд, Колин Сэлмон, Кэтлин Гати, Пол Блекторн, Сюзанна Томпсон и др.

Описание:
После спланированного кораблекрушения, плейбой и миллиардер Оливер Куин пропадает и считается погибшим в течение пяти лет, после чего его обнаруживают живым на затерянном острове в Тихом океане. Когда он возвращается домой в Старлинг-Сити, его преданная мать Мойра, столь любимая сестра Теа, и лучший друг Томми приветствуют его дома, но они видят, что Оливер изменился после испытаний на острове. Хотя Оливер скрывает правду о человеке, которым он стал...



Возраст: 16+ (зрителям, достигшим 16 лет)

Продолжительность: ~ 00:43:00 серия
Качество видео: WEB-DL
Перевод: Многоголосый закадровый, профессиональный - LostFilm
Реклама: присутствует заставка и логотип LostFilm

Видео: AVC/H.264 (High@L3.1), 1280x718 (16:9), ~4000 Кбит/сек
Аудио: AAC, 2 канала, 240 Кбит/сек - русский (многоголосый закадровый)
Код:
Полное имя                               : F:\Arrow_s5_WEB-DL720p_x264_LostFilm_[NNMClub]\Arrow.S05E01.720p.WEB.rus.LostFilm.TV.mp4
Формат                                   : MPEG-4
Профиль формата                          : Base Media
Идентификатор кодека                     : isom (isom)
Размер файла                             : 1,29 Гбайт
Продолжительность                        : 42 м.
Режим общего битрейта                    : Переменный
Общий поток                              : 4341 Кбит/сек
Коллекция                                : Стрела
Сезон                                    : 5
Альбом                                   : Стрела, Сезон 5
Альбом/Исполнитель                       : Стрела
Часть                                    : 1
Часть/Положение                          : 5
Трек                                     : Наследие
Трек/Положение                           : 1
Исполнитель                              : Стрела
Жанр                                     : Sci-Fi & Fantasy
Тип содержимого                          : TV Show
Дата записи                              : 2016
Дата кодирования                         : UTC 2016-10-06 18:35:17
Дата пометки                             : UTC 2016-10-06 18:35:17
Программа кодирования                    : LostCoder
Авторское право                          : LostFilm.TV (c)
Обложка                                  : Yes
Примечание                               : После кораблекрушения плэйбой-миллиардер Оливер Куин пропал без вести. Спустя пять лет его нашли на отдаленном острове в Тихом океане. Когда он возвращается домой в Старлинг-Сити, его радушно встречают родные и друзья. Но он уже не тот, кем был когда-то.
Part_ID                                  : 501

Видео
Идентификатор                            : 1
Формат                                   : AVC
Формат/Информация                        : Advanced Video Codec
Профиль формата                          :
Параметр CABAC формата                   : Нет
Параметр ReFrames формата                : 2 кадра
Идентификатор кодека                     : avc1
Идентификатор кодека/Информация          : Advanced Video Coding
Продолжительность                        : 42 м.
Битрейт                                  : 4000 Кбит/сек
Максимальный битрейт                     : 13,1 Мбит/сек
Ширина                                   : 1280 пикселей
Высота                                   : 718 пикселей
Соотношение сторон                       : 16:9
Режим частоты кадров                     : Переменный
Частота кадров                           : 23,976 кадра/сек
Минимальная частота кадров               : 23,974 кадра/сек
Максимальная частота кадров              : 23,981 кадра/сек
Цветовое пространство                    : YUV
Субдискретизация насыщенности            : 4:2:0
Битовая глубина                          : 8 бит
Тип развёртки                            : Прогрессивная
Бит/(Пиксели*Кадры)                      : 0.182
Размер потока                            : 1,22 Гбайт (94%)
Библиотека кодирования                   : x264 core 112 r1834 a51816a
Настройки программы                      : cabac=1 / ref=4 / deblock=1:-3:-2 / analyse=0x3:0x113 / me=hex / subme=7 / psy=1 / psy_rd=1.00:0.00 / mixed_ref=1 / me_range=16 / chroma_me=1 / trellis=1 / 8x8dct=1 / cqm=0 / deadzone=21,11 / fast_pskip=1 / chroma_qp_offset=-2 / threads=12 / sliced_threads=0 / nr=0 / decimate=1 / interlaced=0 / constrained_intra=0 / bframes=5 / b_pyramid=2 / b_adapt=1 / b_bias=0 / direct=1 / weightb=1 / open_gop=0 / weightp=2 / keyint=250 / keyint_min=25 / scenecut=40 / intra_refresh=0 / rc_lookahead=40 / rc=abr / mbtree=1 / bitrate=4000 / ratetol=1.0 / qcomp=0.60 / qpmin=0 / qpmax=51 / qpstep=4 / vbv_maxrate=10000 / vbv_bufsize=256000 / ip_ratio=1.40 / aq=1:1.00 / nal_hrd=none
Язык                                     : English
Дата пометки                             : UTC 2016-10-06 18:50:43
Цветовой диапазон                        : Limited
Основные цвета                           : BT.709
Характеристики трансфера                 : BT.709
Коэффициенты матрицы                     : BT.709

Аудио
Идентификатор                            : 2
Формат                                   : AAC
Формат/Информация                        : Advanced Audio Codec
Профиль формата                          : LC
Идентификатор кодека                     : 40
Продолжительность                        : 42 м.
Вид битрейта                             : Переменный
Битрейт                                  : 241 Кбит/сек
Максимальный битрейт                     : 297 Кбит/сек
Каналы                                   : 2 канала
Расположение каналов                     : Front: L R
Частота                                  : 48,0 КГц
Частота кадров                           : 46,875 кадров/сек (1024 spf)
Метод сжатия                             : С потерями
Размер потока                            : 73,4 Мбайт (6%)
Дата кодирования                         : UTC 2016-10-06 18:50:42
Дата пометки                             : UTC 2016-10-06 18:50:43

http://www.imdb.com/title/tt2193021/episodes?season=5&ref_=tt_eps_sn_5

01 - Наследие / Legacy
02 - Новобранцы / The Recruits
03 - Вопрос доверия / A Matter of Trust
04 - Искупление / Penance
05 - Живая Цель / Human Target
06 - Всё только начинается / So It Begins
07 - Мститель / Vigilante
08 - Вторжение! / Invasion!
09 - То, что мы оставляем после себя / What We Leave Behind
10 - Кто ты? / Who Are You?
11 - Вторые шансы / Second Chances
12 - Братва / Bratva
Внимание! Раздача ведётся путём добавления новых серий; при каждом добавлении создаётся новый торрент.
Чтобы начать докачку новой серии, пользователям необходимо сделать следующее:
1. Остановить скачивание;
2. Удалить старый торрент у себя из клиента (старые серии удалять не надо);
3. Скачать новый торрент и запустить его у себя в клиенте вместо старого, при этом указать клиенту путь в старую папку куда и должно происходить скачивание новых серий. Ваш клиент при этом должен произвести хеширование (проверку) старой папки и будет докачивать только те серии, которых у вас ещё нет. Старые серии при этом не удаляются, а продолжают раздаваться! Eсли вы уже удалили старые серии, то предотвратить повторную закачку старых серий можно, отжав галочку в соответствующих местах при запуске нового торрента.
Скриншоты:




Время раздачи: 24/7 (круглосуточно) (до появления первых 3-5 скачавших)
 
Не забывайте говорить Спасибо. Не уходите с раздачи!   
Торрент: Зарегистрирован [12 фев 2017, 14:00] Для скачивания .torrent
необходима регистрация
Или скачать с помощью
MediaGet
Статус:
Проверен
 
.torrent скачан: 0 раз
Хэш: cd0e30246064fc8840d4aa6e5a21b52d23cecee7
Размер: 15.85 ГБ (17 016 827 648 байт)
Стать Автором раздачи
 
Аватара пользователя
 
Раздал: 3.77 ТБ
Скачал: 406.3 ГБ
Ратио: 9.496
Сообщения: 468702
Зарегистрирован: 20 янв 2011, 21:15


  • Похожие торренты
    Ответы
    Просмотры
    Последнее сообщение

Вернуться в Видео для мобильных устройств

Ресурс не предоставляет электронные версии произведений, а занимается лишь коллекционированием и каталогизацией ссылок, присылаемых и публикуемых на форуме нашими читателями. Если вы являетесь правообладателем какого-либо представленного материала и не желаете чтобы ссылка на него находилась в нашем каталоге, свяжитесь с нами и мы незамедлительно удалим её. Файлы для обмена на трекере предоставлены пользователями сайта, и администрация не несёт ответственности за их содержание. Просьба не заливать файлы, защищенные авторскими правами, а также файлы нелегального содержания!
cron