В Поисках Дон Кихота: Проект Владимира Познера и Ивана Урганта / Серии: 1-7 (из 8) (Валерий Спирин) [2017, Документальный, HDTVRip-AVC]

 
 Статистика раздачи 
Размер: 3.97 ГБ   |  Зарегистрирован: 12 янв 2017, 13:33   |   .torrent скачан: 1 раз
Сидеров: 34  [ 0 байт/сек ]     Личеров: 11  [ 0 байт/сек ]  
  

В Поисках Дон Кихота: Проект Владимира Познера и Ивана Урганта / Серии: 1-7 (из 8) (Валерий Спирин) [2017, Документальный, HDTVRip-AVC]

Сообщение aLaVodka » 12 янв 2017, 13:33

В Поисках Дон Кихота: Проект Владимира Познера и Ивана Урганта


#77Год выпуска: 2017
Страна: Россия
Телеканал: Первый Канал HD | ООО "Эс Эф Продакшн"
Жанр: Документальный
Общая продолжительность: 5:35:44
Режиссер: Валерий Спирин
Ведущие: Владимир Познер и Иван Ургант
Описание: Владимир Познер о новом проекте: "Это седьмая наша попытка рассказать о стране. Испания - одна из самых интересных стран Европы - с очень сложной историей, с выдающимися художниками и чем-то очень близкая, как это ни странно, России. Испания очень долго была под игом мавров, Россия - под игом монголо-татар. О России часто говорили, что это не совсем Европа. Об Испании говорили, что Европа заканчивается у Пиренеев.

То есть вроде бы и Испания не совсем Европа. Много схожего. Ну и еще, конечно, Испания - страна романтически таинственная с этим боем быков, с этими цыганскими танцами и напевами, с Кармен (хотя ее написал француз, но тем не менее). В общем, страна очень привлекательная вообще и для кино - особенно."
Автор рипа: lrn
Автор записи: TRAY_MAX | Doc66
Сэмпл: sendfile
Тип релиза: HDTVRip-AVC
Контейнер: MKV
Видео: 1024x576 (16:9), 25,000 fps, H264, ~1500 kbps avg, ~0.102 bit/pixel
Аудио: 48 kHz, AC3 Dolby Digital, 2/0 (L,R) ch, ~192.00 kbps avg
Долгое время остальная Европа считала, что Испания - не Европа, а что-то совсем другое. До сих пор существует немало стереотипных представлений об Испании, в том числе миф о том, что это страна вечного праздника, в которой живут беспечные и праздные люди. И практически для всех главный испанец - это Дон Кихот. Жив ли в Испании кихотский дух? Владимир Познер и Иван Ургант решают выяснить это. Ведущие отправляются на поиски Дон Кихота. Они будут искать его повсюду. В разных людях.

В первой серии путешественники проедут по маршруту легендарного идальго. Пройдут шуточный обряд посвящения в рыцари. Познакомятся с современной Дульсинееей. И попытаютcя разобраться в том, кто такие испанцы и что такое испанское.
В 711 году мавры переправились через Гибралтар, высадились на Пиренейском полуострове и в течение нескольких лет покорили почти все Вестготское королевство. Лишь на севере, в горах Астурии, сохранилось крохотное независимое христианское королевство. Отсюда христиане и начали оттеснять мавров с захваченных земель. Эта война, растянувшаяся на восемь веков, получила название "Реконкиста" - отвоевание.

Реконкиста была великой победой. Но чем обернулась она? Изгнанием евреев; Преследованием и изгнанием мавров; Властью Инквизиции, приведшей к взгляду, что "в Испании ты либо католик, либо никто". К завоеванию Америки, получению сказочных богатств и к превращению инков и майя в рабов, что в свою очередь открыло двери работорговле как бизнесу. В результате всего этого Испания всего лишь около ста лет была не только великой державой, но самой великой в Европе, но потом стремительно сдала свои позиции и оказалась на задворках Европы. Именно тогда из-за этого возникло выражение: Европа кончается у Пиренеев.

Какое влияние мавры оказали на формирование испанского национального храктера. На испанский язык. На кухню и на культуру Испании. Об этом пойдет речь в этой серии.
Извечная проблема: в результате определенных исторических обстоятельств формируется единая страна, и почти всегда она формируется в результате кровопролитных войн между ее разными регионами. Побеждает же один. В случае с Испанией, этим победителем оказалась Кастилия. Среди проигравших была Каталония, но она дольше всех и отчаянней всех дралась за независимость. И не смирилась с поражением. На протяжении нескольких веков противостояние нарастало и несколько раз заканчивалось кровопролитием.

После смерти Франко, во времена которого подавлялись всякие проявления национальной идентичности, Каталония, наконец, получила свой парламент, свое правительство, полицию, радио, телевидение. Каталонский язык признан официальным наравне с испанским. Но это не охладило пыл каталонцев. При любой возможности каждый из них напомнит, что он - каталонец, а не испанец.

Владимир Познер и Иван Ургант попытаются понять, чем каталонцы отличаются от испанцев. Что такое каталонский национальный характер. Кого называют каталонским Дон Кихотом. Ведущие познакомятся с самобытными народными традициями. А также обсудят с разными людьми насущный вопрос об отделении Каталонии от Испании.
Страстность - свойство характера присущее далеко не каждому народу. Испанцы страстны во всем - в конфликтах и дружбе, любви и ненависти, в пении и, конечно, в танце. Фламенко - воплощенная страсть - чувство, в котором не бывает середины, в нем есть только "да" и "нет", любовь или смерть.

Чтобы понять суть этого явления и почувствовать дух фламенко, Владимир Познер и Иван Ургант заглянут "за кулисы" этого cтрастного искусства. По традиции представления фламенко проходят в очень маленьких заведениях, они называются таблао. Фламенко не терпит больших пространств - чем короче дистанция, тем сильнее обмен энергией между выступающими и зрителями.

Артисты фламенко поделятся с ведущими своими секретами, расскажут о том, что такое дуэнде, как рождается танец. Фламенко - это работа, это расписание, это бесконечные репетиции, в которых отрабатываются отдельные элементы. И в то же время - это полная свобода, все построено на импровизации. Это больше чем танец. Фламенко - это универсальный язык для разговора о любви и страсти, жизни и смерти.
В этой серии ведущие вспоминают один из самых тяжелых периодов испанской истории - период Гражданской войны, которая закончилась победой франкистов и установлением диктатуры Франко.

Франко пробыл у власти 40 лет и умер 20 ноября 1975 года. Его похороны напоминали похороны Сталина. Вдоль всего пути траурного кортежа от центра Мадрида до Долины павших стояли тысячи людей. Для одних смерть каудильо стала величайшим горем, для других - величайшей радостью. Испанцы до сих пор расходятся в оценке того, кто в этой истории олицетворяет добро, а кто зло. После смерти Франко было решено закрыть эту черную главу и начать строить новую единую Испанию. Был принят, так называемый, "закон о забвении", но оказалось, что невозможно стереть прошлое из памяти. Потомки франкистов и республиканцев продолжают сражаться со своей памятью.

Сторонники Франко утверждают, что эпоха его правления была временем консервативных реформ. Стране удалось избежать участия во Второй Мировой войне. В 50-60 годы произошел экономический подъем и приток иностранных капиталов. По воле Франко произошло возвращение монархии. Противники Франко говорят о том, какой ценой Франко добился стабильности, вспоминают о многочисленных жертвах франкизма. Родственники республиканцев, захороненных в мемориале "Долина павших" вместе с франкистами, требуют эксгумации и перезахоронения останков.

Разделение на две Испании будет существовать до тех пор, пока не будет публичного обсуждения и опять же публичной оценки событий гражданской войны и периода диктатуры Франко. В противном случае призраки прошлого будут возвращаться снова и снова.
В этой серии Владимир Познер отправится в Страну басков. Баски считаются одним из самых загадочных народов мира. Несмотря на множество самых невероятных гипотез, толком никто не знает, как возник этот древний народ, говорящий на своем древнем языке - эускара. Кто только не пытался подчинить басков и забрать их земли. Кельты, финикийцы, греки, римляне, вестготы, франки, норманы, мавры, испанцы. Но они каким-то образом выстояли, сохранили свою уникальную идентичность и культуру.

Владимир Познер побывает в частном музее национальной баскской культуры, познакомится с редким видом спорта - поднятием камней, а также научится играть в национальную игру в мяч - пелоту. Всемирно знаменитый повар Хуан-Мари Арзак откроет ведущему секреты баскской кухни и посвятит его в члены закрытого гастрономического общества чоко.

Познер попытается разобраться в особенностях баскского национального характера, непримиримость которого стала одной из причин появления ЭТА - организации, которая была создана в 1959 году для вооруженной борьбы с диктатурой Франко за национальное самоопределение. Их жертвами становились как политические деятели Испании, так и гражданское население. Ирене Вилья, одна из жертв ЭТА, расскажет о том, как она, будучи ребенком, едва выжила после терракта, а затем, вопреки всему, стала паралимпийской чемпионкой. Всю свою жизнь она активно выступала против национализма и терроризма. В октябре 2011 года ЭТА заявила, что складывает оружие. Владимир Познер обсудит с разными людьми, каким они видят дальнейшее будущее Cтраны басков. Хотят ли баски оставаться в составе Испании. И что по этому поводу думают испанцы.
В 2013 году в Испании был принят закон, признающий корриду национальным достоянием. С другой стороны с каждым годом все больше испанцев высказывается за полный запрет корриды. В этой серии Владимир Познер и Иван Ургант обсудят, что такое коррида для испанцев. Одно из воплощений испанского национального духа, искусство или бессмысленное, жестокое, кровавое развлечение?

"Если Вы готовитесь увидеть свою первую корриду и она будет единственной, пусть это случится в Ронде" - так писал Хемингуэй, страстный поклонник корриды. Владимир Познер последует совету знаменитого писателя и отправится в Ронда - в один из удивительных, так называемых, "белых городов" Андалузии, который считается родиной современной корриды. В сопровождении знаменитых тореадоров, братьев Ордоньес Познер побывает на одной из самых старых арен Испании, а также на фамильном ранчо, которое принадлежало легендарному тореадору Антонио Ордоньесу, дружившему с Хемингуэем и ставшему прототипом нескольких его романов: "Фиеста", "Смерть после полудня", "Опасное лето".

Ведущий погрузится в невероятный мир корриды, притягательный и отталкивающий одновременно, узнает об истинном отношении тореадоров к поединку с быком и к самому быку, побывает в школе тореадоров. А также выслушает точку зрения противников корриды.
В 2016 году исполнилось 400 лет со дня смерти Cервантеса. Эта дата широко отмечалась в Испании. Повсюду вспоминали писателя и его детище. Эпидемия сервантины не обошла и Парламент, где публичные чтения "Дон Кихота" состоялись в присутствии самого "автора". Знаменитый идальго был весьма недоволен тем, что происходит в Испании сегодня.

В этой серии пойдет речь о проблемах, существующих в современной Испании. А также о том, в чем сила испанцев, которые, несмотря ни на что, умеют находить выход из сложных ситуаций. Вероятно, не без помощи Сервантеса, который завещал им никогда не отказываться от мечты. А еще - относиться к себе и к жизни с иронией.
Код: Выделить всё
General
Unique ID                   : 234138189560893970160289957268616272798 (0xB02560029EFD2F1F96CC3EBB01AA5B9E)
Complete name               : V.Poiskah.DonKihota.(01).2017.HDTVRip-AVC.x264-lrn.mkv
Format                      : Matroska
Format version              : Version 4 / Version 2
File size                   : 572 MiB
Duration                    : 47 min 11 s
Overall bit rate            : 1 694 kb/s
Movie name                  : V.Poiskah.DonKihota.2017.HDTVRip-AVC.x264-lrn
Encoded date                : UTC 2010-02-22 21:41:31
Writing application         : mkvmerge v5.9.0 ('On The Loose') built on Dec  9 2012 15:37:01
Writing library             : libebml v1.3.0 + libmatroska v1.4.0

Video
ID                          : 1
Format                      : AVC
Format/Info                 : Advanced Video Codec
Format profile              : High@L4.1
Format settings, CABAC      : Yes
Format settings, ReFrames   : 8 frames
Codec ID                    : V_MPEG4/ISO/AVC
Duration                    : 47 min 11 s
Bit rate                    : 1 500 kb/s
Width                       : 1 024 pixels
Height                      : 576 pixels
Display aspect ratio        : 16:9
Frame rate mode             : Constant
Frame rate                  : 25.000 FPS
Color space                 : YUV
Chroma subsampling          : 4:2:0
Bit depth                   : 8 bits
Scan type                   : Progressive
Bits/(Pixel*Frame)          : 0.102
Stream size                 : 495 MiB (87%)
Writing library             : x264 core 148 r2638 7599210
Encoding settings           : cabac=1 / ref=8 / deblock=1:-3:-3 / analyse=0x3:0x133 / me=umh / subme=9 / psy=1 / psy_rd=1.00:0.00 / mixed_ref=1 / me_range=32 / chroma_me=1 / trellis=2 / 8x8dct=1 / cqm=0 / deadzone=21,11 / fast_pskip=1 / chroma_qp_offset=-2 / threads=12 / lookahead_threads=2 / sliced_threads=0 / nr=0 / decimate=1 / interlaced=0 / bluray_compat=0 / constrained_intra=0 / bframes=8 / b_pyramid=2 / b_adapt=2 / b_bias=0 / direct=3 / weightb=1 / open_gop=0 / weightp=2 / keyint=250 / keyint_min=25 / scenecut=40 / intra_refresh=0 / rc_lookahead=50 / rc=2pass / mbtree=1 / bitrate=1500 / ratetol=1.0 / qcomp=0.60 / qpmin=0 / qpmax=69 / qpstep=4 / cplxblur=20.0 / qblur=0.5 / vbv_maxrate=62500 / vbv_bufsize=78125 / nal_hrd=none / filler=0 / ip_ratio=1.40 / aq=1:1.00
Default                     : Yes
Forced                      : No
Statistics Tags Issue       : mkvmerge v8.5.2 ('Crosses') 32bit 2017-01-05 07:05:13 / mkvmerge v5.9.0 ('On The Loose') built on Dec  9 2012 15:37:01 2010-02-22 21:41:31
FromStats_BitRate           : 1499735
FromStats_Duration          : 00:47:11.480000000
FromStats_FrameCount        : 70787
FromStats_StreamSize        : 530808935

Audio
ID                          : 2
Format                      : AC-3
Format/Info                 : Audio Coding 3
Mode extension              : CM (complete main)
Format settings, Endianness : Big
Codec ID                    : A_AC3
Duration                    : 47 min 11 s
Bit rate mode               : Constant
Bit rate                    : 192 kb/s
Channel(s)                  : 2 channels
Channel positions           : Front: L R
Sampling rate               : 48.0 kHz
Frame rate                  : 31.250 FPS (1536 spf)
Bit depth                   : 16 bits
Compression mode            : Lossy
Stream size                 : 64.8 MiB (11%)
Language                    : Russian
Default                     : Yes
Forced                      : No
Код: Выделить всё
General
Unique ID                   : 175161594902290134297329727067942937079 (0x83C6E5650881A49E9C5C5B918255E1F7)
Complete name               : V.Poiskah.DonKihota.(02).2017.HDTVRip-AVC.x264-lrn.mkv
Format                      : Matroska
Format version              : Version 4 / Version 2
File size                   : 579 MiB
Duration                    : 47 min 50 s
Overall bit rate            : 1 693 kb/s
Movie name                  : V.Poiskah.DonKihota.2017.HDTVRip-AVC.x264-lrn
Encoded date                : UTC 2010-02-22 21:41:31
Writing application         : mkvmerge v5.9.0 ('On The Loose') built on Dec  9 2012 15:37:01
Writing library             : libebml v1.3.0 + libmatroska v1.4.0

Video
ID                          : 1
Format                      : AVC
Format/Info                 : Advanced Video Codec
Format profile              : High@L4.1
Format settings, CABAC      : Yes
Format settings, ReFrames   : 8 frames
Codec ID                    : V_MPEG4/ISO/AVC
Duration                    : 47 min 50 s
Bit rate                    : 1 500 kb/s
Width                       : 1 024 pixels
Height                      : 576 pixels
Display aspect ratio        : 16:9
Frame rate mode             : Constant
Frame rate                  : 25.000 FPS
Color space                 : YUV
Chroma subsampling          : 4:2:0
Bit depth                   : 8 bits
Scan type                   : Progressive
Bits/(Pixel*Frame)          : 0.102
Stream size                 : 502 MiB (87%)
Writing library             : x264 core 148 r2638 7599210
Encoding settings           : cabac=1 / ref=8 / deblock=1:-3:-3 / analyse=0x3:0x133 / me=umh / subme=9 / psy=1 / psy_rd=1.00:0.00 / mixed_ref=1 / me_range=32 / chroma_me=1 / trellis=2 / 8x8dct=1 / cqm=0 / deadzone=21,11 / fast_pskip=1 / chroma_qp_offset=-2 / threads=12 / lookahead_threads=2 / sliced_threads=0 / nr=0 / decimate=1 / interlaced=0 / bluray_compat=0 / constrained_intra=0 / bframes=8 / b_pyramid=2 / b_adapt=2 / b_bias=0 / direct=3 / weightb=1 / open_gop=0 / weightp=2 / keyint=250 / keyint_min=25 / scenecut=40 / intra_refresh=0 / rc_lookahead=50 / rc=2pass / mbtree=1 / bitrate=1500 / ratetol=1.0 / qcomp=0.60 / qpmin=0 / qpmax=69 / qpstep=4 / cplxblur=20.0 / qblur=0.5 / vbv_maxrate=62500 / vbv_bufsize=78125 / nal_hrd=none / filler=0 / ip_ratio=1.40 / aq=1:1.00
Default                     : Yes
Forced                      : No
Statistics Tags Issue       : mkvmerge v8.5.2 ('Crosses') 32bit 2017-01-05 08:23:01 / mkvmerge v5.9.0 ('On The Loose') built on Dec  9 2012 15:37:01 2010-02-22 21:41:31
FromStats_BitRate           : 1499136
FromStats_Duration          : 00:47:50.520000000
FromStats_FrameCount        : 71763
FromStats_StreamSize        : 537912733

Audio
ID                          : 2
Format                      : AC-3
Format/Info                 : Audio Coding 3
Mode extension              : CM (complete main)
Format settings, Endianness : Big
Codec ID                    : A_AC3
Duration                    : 47 min 50 s
Bit rate mode               : Constant
Bit rate                    : 192 kb/s
Channel(s)                  : 2 channels
Channel positions           : Front: L R
Sampling rate               : 48.0 kHz
Frame rate                  : 31.250 FPS (1536 spf)
Bit depth                   : 16 bits
Compression mode            : Lossy
Stream size                 : 65.7 MiB (11%)
Language                    : Russian
Default                     : Yes
Forced                      : No
Код: Выделить всё
General
Unique ID                   : 174159890105549636033917748589615800950 (0x8305F988FD5C8817B6C29F466B8E6276)
Complete name               : V.Poiskah.DonKihota.(03).2017.PROPER.HDTVRip-AVC.x264-lrn.mkv
Format                      : Matroska
Format version              : Version 4 / Version 2
File size                   : 588 MiB
Duration                    : 48 min 31 s
Overall bit rate            : 1 694 kb/s
Movie name                  : V.Poiskah.DonKihota.2017.HDTVRip-AVC.x264-lrn
Encoded date                : UTC 2010-02-22 21:41:31
Writing application         : mkvmerge v5.9.0 ('On The Loose') built on Dec  9 2012 15:37:01
Writing library             : libebml v1.3.0 + libmatroska v1.4.0

Video
ID                          : 1
Format                      : AVC
Format/Info                 : Advanced Video Codec
Format profile              : High@L4.1
Format settings, CABAC      : Yes
Format settings, ReFrames   : 8 frames
Codec ID                    : V_MPEG4/ISO/AVC
Duration                    : 48 min 31 s
Bit rate                    : 1 500 kb/s
Width                       : 1 024 pixels
Height                      : 576 pixels
Display aspect ratio        : 16:9
Frame rate mode             : Constant
Frame rate                  : 25.000 FPS
Color space                 : YUV
Chroma subsampling          : 4:2:0
Bit depth                   : 8 bits
Scan type                   : Progressive
Bits/(Pixel*Frame)          : 0.102
Stream size                 : 510 MiB (87%)
Writing library             : x264 core 148 r2638 7599210
Encoding settings           : cabac=1 / ref=8 / deblock=1:-3:-3 / analyse=0x3:0x133 / me=umh / subme=9 / psy=1 / psy_rd=1.00:0.00 / mixed_ref=1 / me_range=32 / chroma_me=1 / trellis=2 / 8x8dct=1 / cqm=0 / deadzone=21,11 / fast_pskip=1 / chroma_qp_offset=-2 / threads=12 / lookahead_threads=2 / sliced_threads=0 / nr=0 / decimate=1 / interlaced=0 / bluray_compat=0 / constrained_intra=0 / bframes=8 / b_pyramid=2 / b_adapt=2 / b_bias=0 / direct=3 / weightb=1 / open_gop=0 / weightp=2 / keyint=250 / keyint_min=25 / scenecut=40 / intra_refresh=0 / rc_lookahead=50 / rc=2pass / mbtree=1 / bitrate=1500 / ratetol=1.0 / qcomp=0.60 / qpmin=0 / qpmax=69 / qpstep=4 / cplxblur=20.0 / qblur=0.5 / vbv_maxrate=62500 / vbv_bufsize=78125 / nal_hrd=none / filler=0 / ip_ratio=1.40 / aq=1:1.00
Default                     : Yes
Forced                      : No
Statistics Tags Issue       : mkvmerge v8.5.2 ('Crosses') 32bit 2017-01-09 16:37:41 / mkvmerge v5.9.0 ('On The Loose') built on Dec  9 2012 15:37:01 2010-02-22 21:41:31
FromStats_BitRate           : 1500193
FromStats_Duration          : 00:48:31.000000000
FromStats_FrameCount        : 72775
FromStats_StreamSize        : 545883019

Audio
ID                          : 2
Format                      : AC-3
Format/Info                 : Audio Coding 3
Mode extension              : CM (complete main)
Format settings, Endianness : Big
Codec ID                    : A_AC3
Duration                    : 48 min 31 s
Bit rate mode               : Constant
Bit rate                    : 192 kb/s
Channel(s)                  : 2 channels
Channel positions           : Front: L R
Sampling rate               : 48.0 kHz
Frame rate                  : 31.250 FPS (1536 spf)
Bit depth                   : 16 bits
Compression mode            : Lossy
Stream size                 : 66.6 MiB (11%)
Language                    : Russian
Default                     : Yes
Forced                      : No
Код: Выделить всё
General
Unique ID                   : 239546509638183669579433253363717210208 (0xB436FAC6F8AC83FFAA3A5BBB70678060)
Complete name               : V.Poiskah.DonKihota.(04).2017.HDTVRip-AVC.x264-lrn.mkv
Format                      : Matroska
Format version              : Version 4 / Version 2
File size                   : 583 MiB
Duration                    : 48 min 8 s
Overall bit rate            : 1 693 kb/s
Movie name                  : V.Poiskah.DonKihota.2017.HDTVRip-AVC.x264-lrn
Encoded date                : UTC 2010-02-22 21:41:31
Writing application         : mkvmerge v5.9.0 ('On The Loose') built on Dec  9 2012 15:37:01
Writing library             : libebml v1.3.0 + libmatroska v1.4.0

Video
ID                          : 1
Format                      : AVC
Format/Info                 : Advanced Video Codec
Format profile              : High@L4.1
Format settings, CABAC      : Yes
Format settings, ReFrames   : 8 frames
Codec ID                    : V_MPEG4/ISO/AVC
Duration                    : 48 min 8 s
Bit rate                    : 1 500 kb/s
Width                       : 1 024 pixels
Height                      : 576 pixels
Display aspect ratio        : 16:9
Frame rate mode             : Constant
Frame rate                  : 25.000 FPS
Color space                 : YUV
Chroma subsampling          : 4:2:0
Bit depth                   : 8 bits
Scan type                   : Progressive
Bits/(Pixel*Frame)          : 0.102
Stream size                 : 505 MiB (87%)
Writing library             : x264 core 148 r2638 7599210
Encoding settings           : cabac=1 / ref=8 / deblock=1:-3:-3 / analyse=0x3:0x133 / me=umh / subme=9 / psy=1 / psy_rd=1.00:0.00 / mixed_ref=1 / me_range=32 / chroma_me=1 / trellis=2 / 8x8dct=1 / cqm=0 / deadzone=21,11 / fast_pskip=1 / chroma_qp_offset=-2 / threads=12 / lookahead_threads=2 / sliced_threads=0 / nr=0 / decimate=1 / interlaced=0 / bluray_compat=0 / constrained_intra=0 / bframes=8 / b_pyramid=2 / b_adapt=2 / b_bias=0 / direct=3 / weightb=1 / open_gop=0 / weightp=2 / keyint=250 / keyint_min=25 / scenecut=40 / intra_refresh=0 / rc_lookahead=50 / rc=2pass / mbtree=1 / bitrate=1500 / ratetol=1.0 / qcomp=0.60 / qpmin=0 / qpmax=69 / qpstep=4 / cplxblur=20.0 / qblur=0.5 / vbv_maxrate=62500 / vbv_bufsize=78125 / nal_hrd=none / filler=0 / ip_ratio=1.40 / aq=1:1.00
Default                     : Yes
Forced                      : No
Statistics Tags Issue       : mkvmerge v8.5.2 ('Crosses') 32bit 2017-01-07 22:44:30 / mkvmerge v5.9.0 ('On The Loose') built on Dec  9 2012 15:37:01 2010-02-22 21:41:31
FromStats_BitRate           : 1499626
FromStats_Duration          : 00:48:08.760000000
FromStats_FrameCount        : 72219
FromStats_StreamSize        : 541507579

Audio
ID                          : 2
Format                      : AC-3
Format/Info                 : Audio Coding 3
Mode extension              : CM (complete main)
Format settings, Endianness : Big
Codec ID                    : A_AC3
Duration                    : 48 min 8 s
Bit rate mode               : Constant
Bit rate                    : 192 kb/s
Channel(s)                  : 2 channels
Channel positions           : Front: L R
Sampling rate               : 48.0 kHz
Frame rate                  : 31.250 FPS (1536 spf)
Bit depth                   : 16 bits
Compression mode            : Lossy
Stream size                 : 66.1 MiB (11%)
Language                    : Russian
Default                     : Yes
Forced                      : No
Код: Выделить всё
General
Unique ID                   : 248327273190170330514363320259584381808 (0xBAD217D8515C24109F35F6B64F42D370)
Complete name               : V.Poiskah.DonKihota.(05).2017.HDTVRip-AVC.x264-lrn.mkv
Format                      : Matroska
Format version              : Version 4 / Version 2
File size                   : 581 MiB
Duration                    : 47 min 59 s
Overall bit rate            : 1 693 kb/s
Movie name                  : V.Poiskah.DonKihota.2017.HDTVRip-AVC.x264-lrn
Encoded date                : UTC 2010-02-22 21:41:31
Writing application         : mkvmerge v5.9.0 ('On The Loose') built on Dec  9 2012 15:37:01
Writing library             : libebml v1.3.0 + libmatroska v1.4.0

Video
ID                          : 1
Format                      : AVC
Format/Info                 : Advanced Video Codec
Format profile              : High@L4.1
Format settings, CABAC      : Yes
Format settings, ReFrames   : 8 frames
Codec ID                    : V_MPEG4/ISO/AVC
Duration                    : 47 min 59 s
Bit rate                    : 1 500 kb/s
Width                       : 1 024 pixels
Height                      : 576 pixels
Display aspect ratio        : 16:9
Frame rate mode             : Constant
Frame rate                  : 25.000 FPS
Color space                 : YUV
Chroma subsampling          : 4:2:0
Bit depth                   : 8 bits
Scan type                   : Progressive
Bits/(Pixel*Frame)          : 0.102
Stream size                 : 504 MiB (87%)
Writing library             : x264 core 148 r2638 7599210
Encoding settings           : cabac=1 / ref=8 / deblock=1:-3:-3 / analyse=0x3:0x133 / me=umh / subme=9 / psy=1 / psy_rd=1.00:0.00 / mixed_ref=1 / me_range=32 / chroma_me=1 / trellis=2 / 8x8dct=1 / cqm=0 / deadzone=21,11 / fast_pskip=1 / chroma_qp_offset=-2 / threads=12 / lookahead_threads=2 / sliced_threads=0 / nr=0 / decimate=1 / interlaced=0 / bluray_compat=0 / constrained_intra=0 / bframes=8 / b_pyramid=2 / b_adapt=2 / b_bias=0 / direct=3 / weightb=1 / open_gop=0 / weightp=2 / keyint=250 / keyint_min=25 / scenecut=40 / intra_refresh=0 / rc_lookahead=50 / rc=2pass / mbtree=1 / bitrate=1500 / ratetol=1.0 / qcomp=0.60 / qpmin=0 / qpmax=69 / qpstep=4 / cplxblur=20.0 / qblur=0.5 / vbv_maxrate=62500 / vbv_bufsize=78125 / nal_hrd=none / filler=0 / ip_ratio=1.40 / aq=1:1.00
Default                     : Yes
Forced                      : No
Statistics Tags Issue       : mkvmerge v8.5.2 ('Crosses') 32bit 2017-01-10 06:50:17 / mkvmerge v5.9.0 ('On The Loose') built on Dec  9 2012 15:37:01 2010-02-22 21:41:31
FromStats_BitRate           : 1499686
FromStats_Duration          : 00:47:59.040000000
FromStats_FrameCount        : 71976
FromStats_StreamSize        : 539707297

Audio
ID                          : 2
Format                      : AC-3
Format/Info                 : Audio Coding 3
Mode extension              : CM (complete main)
Format settings, Endianness : Big
Codec ID                    : A_AC3
Duration                    : 47 min 59 s
Bit rate mode               : Constant
Bit rate                    : 192 kb/s
Channel(s)                  : 2 channels
Channel positions           : Front: L R
Sampling rate               : 48.0 kHz
Frame rate                  : 31.250 FPS (1536 spf)
Bit depth                   : 16 bits
Compression mode            : Lossy
Stream size                 : 65.9 MiB (11%)
Language                    : Russian
Default                     : Yes
Forced                      : No
Код: Выделить всё
General
Unique ID                   : 199954868823277667068705745524391887458 (0x966DE82D2C271DDE80D031F641A34262)
Complete name               : V.Poiskah.DonKihota.(06).2017.HDTVRip-AVC.x264-lrn.mkv
Format                      : Matroska
Format version              : Version 4 / Version 2
File size                   : 581 MiB
Duration                    : 47 min 54 s
Overall bit rate            : 1 694 kb/s
Movie name                  : V.Poiskah.DonKihota.2017.HDTVRip-AVC.x264-lrn
Encoded date                : UTC 2010-02-22 21:41:31
Writing application         : mkvmerge v5.9.0 ('On The Loose') built on Dec  9 2012 15:37:01
Writing library             : libebml v1.3.0 + libmatroska v1.4.0

Video
ID                          : 1
Format                      : AVC
Format/Info                 : Advanced Video Codec
Format profile              : High@L4.1
Format settings, CABAC      : Yes
Format settings, ReFrames   : 8 frames
Codec ID                    : V_MPEG4/ISO/AVC
Duration                    : 47 min 54 s
Bit rate                    : 1 500 kb/s
Width                       : 1 024 pixels
Height                      : 576 pixels
Display aspect ratio        : 16:9
Frame rate mode             : Constant
Frame rate                  : 25.000 FPS
Color space                 : YUV
Chroma subsampling          : 4:2:0
Bit depth                   : 8 bits
Scan type                   : Progressive
Bits/(Pixel*Frame)          : 0.102
Stream size                 : 503 MiB (87%)
Writing library             : x264 core 148 r2638 7599210
Encoding settings           : cabac=1 / ref=8 / deblock=1:-3:-3 / analyse=0x3:0x133 / me=umh / subme=9 / psy=1 / psy_rd=1.00:0.00 / mixed_ref=1 / me_range=32 / chroma_me=1 / trellis=2 / 8x8dct=1 / cqm=0 / deadzone=21,11 / fast_pskip=1 / chroma_qp_offset=-2 / threads=12 / lookahead_threads=2 / sliced_threads=0 / nr=0 / decimate=1 / interlaced=0 / bluray_compat=0 / constrained_intra=0 / bframes=8 / b_pyramid=2 / b_adapt=2 / b_bias=0 / direct=3 / weightb=1 / open_gop=0 / weightp=2 / keyint=250 / keyint_min=25 / scenecut=40 / intra_refresh=0 / rc_lookahead=50 / rc=2pass / mbtree=1 / bitrate=1500 / ratetol=1.0 / qcomp=0.60 / qpmin=0 / qpmax=69 / qpstep=4 / cplxblur=20.0 / qblur=0.5 / vbv_maxrate=62500 / vbv_bufsize=78125 / nal_hrd=none / filler=0 / ip_ratio=1.40 / aq=1:1.00
Default                     : Yes
Forced                      : No
Statistics Tags Issue       : mkvmerge v8.5.2 ('Crosses') 32bit 2017-01-11 00:54:30 / mkvmerge v5.9.0 ('On The Loose') built on Dec  9 2012 15:37:01 2010-02-22 21:41:31
FromStats_BitRate           : 1500292
FromStats_Duration          : 00:47:54.600000000
FromStats_FrameCount        : 71865
FromStats_StreamSize        : 539092447

Audio
ID                          : 2
Format                      : AC-3
Format/Info                 : Audio Coding 3
Mode extension              : CM (complete main)
Format settings, Endianness : Big
Codec ID                    : A_AC3
Duration                    : 47 min 54 s
Bit rate mode               : Constant
Bit rate                    : 192 kb/s
Channel(s)                  : 2 channels
Channel positions           : Front: L R
Sampling rate               : 48.0 kHz
Frame rate                  : 31.250 FPS (1536 spf)
Bit depth                   : 16 bits
Compression mode            : Lossy
Stream size                 : 65.8 MiB (11%)
Language                    : Russian
Default                     : Yes
Forced                      : No
Код: Выделить всё
General
Unique ID                   : 240338975322776523113318381320433822083 (0xB4CF9A5A20D54960B445B4F40F97E983)
Complete name               : V.Poiskah.DonKihota.(07).2017.HDTVRip-AVC.x264-lrn.mkv
Format                      : Matroska
Format version              : Version 4 / Version 2
File size                   : 583 MiB
Duration                    : 48 min 8 s
Overall bit rate            : 1 693 kb/s
Movie name                  : V.Poiskah.DonKihota.2017.HDTVRip-AVC.x264-lrn
Encoded date                : UTC 2010-02-22 21:41:31
Writing application         : mkvmerge v5.9.0 ('On The Loose') built on Dec  9 2012 15:37:01
Writing library             : libebml v1.3.0 + libmatroska v1.4.0

Video
ID                          : 1
Format                      : AVC
Format/Info                 : Advanced Video Codec
Format profile              : High@L4.1
Format settings, CABAC      : Yes
Format settings, ReFrames   : 8 frames
Codec ID                    : V_MPEG4/ISO/AVC
Duration                    : 48 min 8 s
Bit rate                    : 1 500 kb/s
Width                       : 1 024 pixels
Height                      : 576 pixels
Display aspect ratio        : 16:9
Frame rate mode             : Constant
Frame rate                  : 25.000 FPS
Color space                 : YUV
Chroma subsampling          : 4:2:0
Bit depth                   : 8 bits
Scan type                   : Progressive
Bits/(Pixel*Frame)          : 0.102
Stream size                 : 505 MiB (87%)
Writing library             : x264 core 148 r2638 7599210
Encoding settings           : cabac=1 / ref=8 / deblock=1:-3:-3 / analyse=0x3:0x133 / me=umh / subme=9 / psy=1 / psy_rd=1.00:0.00 / mixed_ref=1 / me_range=32 / chroma_me=1 / trellis=2 / 8x8dct=1 / cqm=0 / deadzone=21,11 / fast_pskip=1 / chroma_qp_offset=-2 / threads=12 / lookahead_threads=2 / sliced_threads=0 / nr=0 / decimate=1 / interlaced=0 / bluray_compat=0 / constrained_intra=0 / bframes=8 / b_pyramid=2 / b_adapt=2 / b_bias=0 / direct=3 / weightb=1 / open_gop=0 / weightp=2 / keyint=250 / keyint_min=25 / scenecut=40 / intra_refresh=0 / rc_lookahead=50 / rc=2pass / mbtree=1 / bitrate=1500 / ratetol=1.0 / qcomp=0.60 / qpmin=0 / qpmax=69 / qpstep=4 / cplxblur=20.0 / qblur=0.5 / vbv_maxrate=62500 / vbv_bufsize=78125 / nal_hrd=none / filler=0 / ip_ratio=1.40 / aq=1:1.00
Default                     : Yes
Forced                      : No
Statistics Tags Issue       : mkvmerge v8.5.2 ('Crosses') 32bit 2017-01-12 10:11:45 / mkvmerge v5.9.0 ('On The Loose') built on Dec  9 2012 15:37:01 2010-02-22 21:41:31
FromStats_BitRate           : 1499568
FromStats_Duration          : 00:48:08.760000000
FromStats_FrameCount        : 72219
FromStats_StreamSize        : 541486678

Audio
ID                          : 2
Format                      : AC-3
Format/Info                 : Audio Coding 3
Mode extension              : CM (complete main)
Format settings, Endianness : Big
Codec ID                    : A_AC3
Duration                    : 48 min 8 s
Bit rate mode               : Constant
Bit rate                    : 192 kb/s
Channel(s)                  : 2 channels
Channel positions           : Front: L R
Sampling rate               : 48.0 kHz
Frame rate                  : 31.250 FPS (1536 spf)
Bit depth                   : 16 bits
Compression mode            : Lossy
Stream size                 : 66.1 MiB (11%)
Language                    : Russian
Default                     : Yes
Forced                      : No
Код: Выделить всё
raw [info]: 1024x576p 1:1 @ 25/1 fps (cfr)
x264 [info]: using SAR=1/1
x264 [info]: using cpu capabilities: MMX2 SSE2Fast SSSE3 SSE4.2 AVX
x264 [info]: profile High, level 4.1
x264 [info]: frame I:726   Avg QP:19.82  size: 58518
x264 [info]: frame P:20273 Avg QP:23.54  size: 14813
x264 [info]: frame B:49788 Avg QP:27.14  size:  3776
x264 [info]: consecutive B-frames:  4.8%  6.5%  8.9% 61.7%  7.9%  8.1%  0.9%  1.0%  0.2%
x264 [info]: mb I  I16..4: 11.1% 68.1% 20.9%
x264 [info]: mb P  I16..4:  2.4%  8.1%  1.0%  P16..4: 41.4% 13.0% 11.4%  0.6%  0.2%    skip:21.9%
x264 [info]: mb B  I16..4:  0.2%  0.8%  0.1%  B16..8: 35.7%  5.6%  1.4%  direct: 2.4%  skip:53.9%  L0:40.1% L1:49.4% BI:10.5%
x264 [info]: 8x8 transform intra:70.6% inter:66.1%
x264 [info]: direct mvs  spatial:93.7% temporal:6.3%
x264 [info]: coded y,uvDC,uvAC intra: 61.4% 55.9% 18.7% inter: 12.3% 10.4% 0.2%
x264 [info]: i16 v,h,dc,p: 30% 23%  8% 38%
x264 [info]: i8 v,h,dc,ddl,ddr,vr,hd,vl,hu: 12% 11% 10%  8% 12% 12% 13% 10% 13%
x264 [info]: i4 v,h,dc,ddl,ddr,vr,hd,vl,hu: 14% 13%  5%  8% 12% 12% 13% 10% 13%
x264 [info]: i8c dc,h,v,p: 40% 28% 18% 14%
x264 [info]: Weighted P-Frames: Y:4.4% UV:1.1%
x264 [info]: ref P L0: 55.5% 15.5% 13.9%  4.4%  3.6%  2.7%  2.5%  1.7%  0.3%  0.0%
x264 [info]: ref B L0: 83.7%  8.5%  3.7%  1.7%  1.3%  0.8%  0.5%
x264 [info]: ref B L1: 95.8%  4.2%
x264 [info]: kb/s:1499.73
encoded 70787 frames, 25.16 fps, 1499.73 kb/s
Код: Выделить всё
raw [info]: 1024x576p 1:1 @ 25/1 fps (cfr)
x264 [info]: using SAR=1/1
x264 [info]: using cpu capabilities: MMX2 SSE2Fast SSSE3 SSE4.2 AVX
x264 [info]: profile High, level 4.1
x264 [info]: frame I:842   Avg QP:17.60  size: 80585
x264 [info]: frame P:20810 Avg QP:21.34  size: 15620
x264 [info]: frame B:50111 Avg QP:25.26  size:  2894
x264 [info]: consecutive B-frames:  5.5%  7.2%  8.3% 60.6%  7.3%  7.5%  1.5%  1.5%  0.6%
x264 [info]: mb I  I16..4:  6.2% 75.6% 18.2%
x264 [info]: mb P  I16..4:  1.6%  5.6%  0.7%  P16..4: 41.8% 14.1% 13.4%  0.7%  0.2%    skip:21.9%
x264 [info]: mb B  I16..4:  0.1%  0.4%  0.1%  B16..8: 33.8%  4.4%  1.1%  direct: 1.9%  skip:58.3%  L0:38.3% L1:49.1% BI:12.6%
x264 [info]: 8x8 transform intra:72.5% inter:62.0%
x264 [info]: direct mvs  spatial:93.0% temporal:7.0%
x264 [info]: coded y,uvDC,uvAC intra: 68.2% 72.6% 35.0% inter: 12.1% 13.0% 0.4%
x264 [info]: i16 v,h,dc,p: 31% 20%  8% 41%
x264 [info]: i8 v,h,dc,ddl,ddr,vr,hd,vl,hu: 14% 12%  9%  7% 11% 11% 12% 11% 13%
x264 [info]: i4 v,h,dc,ddl,ddr,vr,hd,vl,hu: 15% 11%  5%  8% 13% 12% 13% 10% 13%
x264 [info]: i8c dc,h,v,p: 35% 27% 21% 17%
x264 [info]: Weighted P-Frames: Y:2.8% UV:0.9%
x264 [info]: ref P L0: 59.0% 15.9% 12.7%  3.9%  2.9%  2.2%  1.9%  1.3%  0.2%  0.0%
x264 [info]: ref B L0: 86.9%  7.2%  2.9%  1.2%  0.9%  0.5%  0.3%
x264 [info]: ref B L1: 96.4%  3.6%
x264 [info]: kb/s:1499.13
encoded 71763 frames, 26.94 fps, 1499.13 kb/s
Код: Выделить всё
raw [info]: 1024x576p 1:1 @ 25/1 fps (cfr)
x264 [info]: using SAR=1/1
x264 [info]: using cpu capabilities: MMX2 SSE2Fast SSSE3 SSE4.2 AVX
x264 [info]: profile High, level 4.1
x264 [info]: frame I:800   Avg QP:20.67  size: 67970
x264 [info]: frame P:20923 Avg QP:24.55  size: 15061
x264 [info]: frame B:51052 Avg QP:28.42  size:  3455
x264 [info]: consecutive B-frames:  4.4%  7.2%  9.6% 64.3%  7.1%  5.5%  0.7%  0.8%  0.2%
x264 [info]: mb I  I16..4:  9.4% 69.9% 20.7%
x264 [info]: mb P  I16..4:  2.6%  8.0%  1.1%  P16..4: 40.2% 13.2% 11.5%  0.8%  0.2%    skip:22.3%
x264 [info]: mb B  I16..4:  0.2%  0.6%  0.1%  B16..8: 34.8%  5.7%  1.4%  direct: 2.1%  skip:55.1%  L0:38.4% L1:50.3% BI:11.3%
x264 [info]: 8x8 transform intra:68.6% inter:63.2%
x264 [info]: direct mvs  spatial:91.3% temporal:8.7%
x264 [info]: coded y,uvDC,uvAC intra: 61.2% 58.1% 24.2% inter: 12.0% 10.4% 0.4%
x264 [info]: i16 v,h,dc,p: 27% 23%  9% 42%
x264 [info]: i8 v,h,dc,ddl,ddr,vr,hd,vl,hu: 12% 10%  9%  8% 12% 12% 13% 11% 13%
x264 [info]: i4 v,h,dc,ddl,ddr,vr,hd,vl,hu: 14% 11%  5%  8% 13% 13% 13% 10% 14%
x264 [info]: i8c dc,h,v,p: 43% 25% 19% 14%
x264 [info]: Weighted P-Frames: Y:4.5% UV:1.1%
x264 [info]: ref P L0: 57.7% 16.9% 12.5%  3.9%  2.9%  2.4%  2.1%  1.4%  0.2%  0.0%
x264 [info]: ref B L0: 87.4%  6.5%  2.9%  1.3%  1.0%  0.6%  0.4%
x264 [info]: ref B L1: 96.8%  3.2%
x264 [info]: kb/s:1500.19
encoded 72775 frames, 25.14 fps, 1500.19 kb/s/pre]
[pre]raw [info]: 1024x576p 1:1 @ 25/1 fps (cfr)
x264 [info]: using SAR=1/1
x264 [info]: using cpu capabilities: MMX2 SSE2Fast SSSE3 SSE4.2 AVX
x264 [info]: profile High, level 4.1
x264 [info]: frame I:911 Avg QP:17.47 size: 53098
x264 [info]: frame P:20399 Avg QP:21.40 size: 14372
x264 [info]: frame B:50909 Avg QP:24.67 size: 3928
x264 [info]: consecutive B-frames: 4.4% 5.5% 9.6% 66.2% 8.1% 5.3% 0.4% 0.4% 0.1%
x264 [info]: mb I I16..4: 10.8% 71.7% 17.5%
x264 [info]: mb P I16..4: 2.9% 9.9% 1.0% P16..4: 39.1% 12.9% 10.4% 0.5% 0.2% skip:23.2%
x264 [info]: mb B I16..4: 0.2% 1.0% 0.1% B16..8: 33.3% 6.3% 1.4% direct: 2.4% skip:55.2% L0:40.4% L1:48.8% BI:10.9%
x264 [info]: 8x8 transform intra:72.3% inter:70.0%
x264 [info]: direct mvs spatial:96.3% temporal:3.7%
x264 [info]: coded y,uvDC,uvAC intra: 61.9% 64.0% 26.2% inter: 12.2% 12.0% 0.4%
x264 [info]: i16 v,h,dc,p: 32% 20% 8% 40%
x264 [info]: i8 v,h,dc,ddl,ddr,vr,hd,vl,hu: 14% 11% 9% 7% 11% 12% 12% 11% 12%
x264 [info]: i4 v,h,dc,ddl,ddr,vr,hd,vl,hu: 15% 11% 5% 8% 13% 13% 13% 10% 12%
x264 [info]: i8c dc,h,v,p: 37% 26% 20% 17%
x264 [info]: Weighted P-Frames: Y:2.8% UV:0.6%
x264 [info]: ref P L0: 55.8% 12.0% 15.2% 5.0% 4.0% 3.1% 2.8% 1.9% 0.3% 0.0%
x264 [info]: ref B L0: 84.4% 8.2% 3.4% 1.6% 1.2% 0.8% 0.5%
x264 [info]: ref B L1: 96.4% 3.6%
x264 [info]: kb/s:1499.62
encoded 72219 frames, 24.76 fps, 1499.62 kb/s
Код: Выделить всё
raw [info]: 1024x576p 1:1 @ 25/1 fps (cfr)
x264 [info]: using SAR=1/1
x264 [info]: using cpu capabilities: MMX2 SSE2Fast SSSE3 SSE4.2 AVX
x264 [info]: profile High, level 4.1
x264 [info]: frame I:701   Avg QP:19.23  size: 49637
x264 [info]: frame P:20167 Avg QP:22.90  size: 13912
x264 [info]: frame B:51108 Avg QP:26.41  size:  4390
x264 [info]: consecutive B-frames:  3.9%  6.4%  8.8% 63.8%  7.7%  6.7%  1.0%  1.5%  0.2%
x264 [info]: mb I  I16..4: 10.8% 73.9% 15.3%
x264 [info]: mb P  I16..4:  2.5% 11.2%  1.1%  P16..4: 37.4% 12.5%  9.5%  0.3%  0.1%    skip:25.3%
x264 [info]: mb B  I16..4:  0.2%  1.1%  0.1%  B16..8: 31.9%  7.0%  1.6%  direct: 3.1%  skip:54.9%  L0:41.0% L1:48.9% BI:10.2%
x264 [info]: 8x8 transform intra:75.4% inter:74.0%
x264 [info]: direct mvs  spatial:97.0% temporal:3.0%
x264 [info]: coded y,uvDC,uvAC intra: 61.9% 41.7% 12.1% inter: 14.7% 9.3% 0.1%
x264 [info]: i16 v,h,dc,p: 35% 23%  8% 34%
x264 [info]: i8 v,h,dc,ddl,ddr,vr,hd,vl,hu: 14% 10% 11%  7% 11% 12% 12% 10% 12%
x264 [info]: i4 v,h,dc,ddl,ddr,vr,hd,vl,hu: 15% 10%  5%  8% 13% 14% 13% 10% 12%
x264 [info]: i8c dc,h,v,p: 53% 22% 16%  9%
x264 [info]: Weighted P-Frames: Y:8.1% UV:0.8%
x264 [info]: ref P L0: 53.7% 13.6% 14.7%  5.2%  4.1%  3.3%  3.0%  2.0%  0.4%  0.0%
x264 [info]: ref B L0: 82.5%  8.7%  3.9%  1.9%  1.5%  1.0%  0.6%
x264 [info]: ref B L1: 95.8%  4.2%
x264 [info]: kb/s:1499.69
encoded 71976 frames, 24.87 fps, 1499.68 kb/s
Код: Выделить всё
raw [info]: 1024x576p 1:1 @ 25/1 fps (cfr)
x264 [info]: using SAR=1/1
x264 [info]: using cpu capabilities: MMX2 SSE2Fast SSSE3 SSE4.2 AVX
x264 [info]: profile High, level 4.1
x264 [info]: frame I:859   Avg QP:18.29  size: 62154
x264 [info]: frame P:20147 Avg QP:22.12  size: 14514
x264 [info]: frame B:50859 Avg QP:25.60  size:  3800
x264 [info]: consecutive B-frames:  4.1%  6.0%  9.2% 64.7%  7.8%  6.2%  0.7%  1.0%  0.2%
x264 [info]: mb I  I16..4:  7.6% 73.1% 19.3%
x264 [info]: mb P  I16..4:  2.4%  9.6%  1.0%  P16..4: 41.2% 13.5% 10.7%  0.4%  0.1%    skip:21.0%
x264 [info]: mb B  I16..4:  0.2%  0.8%  0.1%  B16..8: 34.7%  6.0%  1.3%  direct: 2.8%  skip:54.1%  L0:40.2% L1:48.4% BI:11.4%
x264 [info]: 8x8 transform intra:73.5% inter:70.5%
x264 [info]: direct mvs  spatial:95.8% temporal:4.2%
x264 [info]: coded y,uvDC,uvAC intra: 64.9% 62.7% 23.7% inter: 13.1% 12.6% 0.2%
x264 [info]: i16 v,h,dc,p: 28% 22%  7% 43%
x264 [info]: i8 v,h,dc,ddl,ddr,vr,hd,vl,hu: 14% 12%  8%  7% 11% 12% 12% 11% 13%
x264 [info]: i4 v,h,dc,ddl,ddr,vr,hd,vl,hu: 15% 12%  4%  8% 13% 13% 13% 10% 12%
x264 [info]: i8c dc,h,v,p: 38% 26% 20% 16%
x264 [info]: Weighted P-Frames: Y:4.8% UV:1.1%
x264 [info]: ref P L0: 56.2% 14.5% 14.1%  4.5%  3.5%  2.7%  2.4%  1.6%  0.3%  0.0%
x264 [info]: ref B L0: 85.8%  7.5%  3.1%  1.5%  1.0%  0.7%  0.4%
x264 [info]: ref B L1: 96.7%  3.3%
x264 [info]: kb/s:1500.29
encoded 71865 frames, 25.57 fps, 1500.29 kb/s
Код: Выделить всё
raw [info]: 1024x576p 1:1 @ 25/1 fps (cfr)
x264 [info]: using SAR=1/1
x264 [info]: using cpu capabilities: MMX2 SSE2Fast SSSE3 SSE4.2 AVX
x264 [info]: profile High, level 4.1
x264 [info]: frame I:1026  Avg QP:19.17  size: 62634
x264 [info]: frame P:21100 Avg QP:22.93  size: 14534
x264 [info]: frame B:50093 Avg QP:26.09  size:  3405
x264 [info]: consecutive B-frames:  5.6%  7.3% 10.9% 58.2%  9.0%  6.1%  1.0%  1.5%  0.3%
x264 [info]: mb I  I16..4:  9.3% 73.4% 17.3%
x264 [info]: mb P  I16..4:  2.9%  9.1%  1.0%  P16..4: 40.7% 13.0% 11.0%  0.6%  0.2%    skip:21.7%
x264 [info]: mb B  I16..4:  0.3%  0.7%  0.1%  B16..8: 34.0%  5.5%  1.3%  direct: 2.3%  skip:55.9%  L0:39.3% L1:49.6% BI:11.1%
x264 [info]: 8x8 transform intra:70.5% inter:67.9%
x264 [info]: direct mvs  spatial:95.0% temporal:5.0%
x264 [info]: coded y,uvDC,uvAC intra: 60.5% 64.6% 27.6% inter: 12.0% 12.8% 0.4%
x264 [info]: i16 v,h,dc,p: 24% 30%  8% 39%
x264 [info]: i8 v,h,dc,ddl,ddr,vr,hd,vl,hu: 12% 13%  9%  7% 11% 11% 13% 10% 13%
x264 [info]: i4 v,h,dc,ddl,ddr,vr,hd,vl,hu: 13% 12%  5%  8% 13% 13% 13% 10% 13%
x264 [info]: i8c dc,h,v,p: 37% 28% 18% 16%
x264 [info]: Weighted P-Frames: Y:3.7% UV:1.3%
x264 [info]: ref P L0: 58.6% 15.1% 13.3%  4.0%  3.0%  2.3%  2.0%  1.3%  0.2%  0.0%
x264 [info]: ref B L0: 87.7%  6.9%  2.6%  1.1%  0.8%  0.5%  0.3%
x264 [info]: ref B L1: 96.9%  3.1%
x264 [info]: kb/s:1499.57
encoded 72219 frames, 24.64 fps, 1499.57 kb/s

 
Не забывайте говорить Спасибо. Не уходите с раздачи!   
Торрент: Зарегистрирован [12 янв 2017, 13:33] Для скачивания .torrent
необходима регистрация
Или скачать с помощью
MediaGet
Статус:
Проверен
 
.torrent скачан: 1 раз
Хэш: b603c01cc4ca506ba3b4df5afe0678aa58938824
Размер: 3.97 ГБ (4 264 333 649 байт)
Стать Автором раздачи
 
 
Раздал: 100 ГБ
Скачал: 0 байт
Ратио: Seed.
Сообщения: 185148
Зарегистрирован: 09 апр 2015, 20:00


  • Похожие торренты
    Ответы
    Просмотры
    Последнее сообщение

Вернуться в Путешествия и туризм (видео)

Кто сейчас на конференции

Сейчас эту тему просматривают: нет зарегистрированных пользователей и гости: 1

Ресурс не предоставляет электронные версии произведений, а занимается лишь коллекционированием и каталогизацией ссылок, присылаемых и публикуемых на форуме нашими читателями. Если вы являетесь правообладателем какого-либо представленного материала и не желаете чтобы ссылка на него находилась в нашем каталоге, свяжитесь с нами и мы незамедлительно удалим её. Файлы для обмена на трекере предоставлены пользователями сайта, и администрация не несёт ответственности за их содержание. Просьба не заливать файлы, защищенные авторскими правами, а также файлы нелегального содержания!