Бен-Гур / Ben-Hur (Тимур Бекмамбетов / Timur Bekmambetov) [2016, США, боевик, драма, приключения, BDRip-AVC] Dub + Original + Sub (eng)

Самое свежее и новое. Побалуй себя новинками этого года!
 
 Статистика раздачи 
Размер: 2.22 ГБ   |  Зарегистрирован: 12 янв 2017, 12:50   |   .torrent скачан: 1 раз
Сидеров: 1  [ 0 байт/сек ]     Личеров: 0  [ 0 байт/сек ]  
  

Бен-Гур / Ben-Hur (Тимур Бекмамбетов / Timur Bekmambetov) [2016, США, боевик, драма, приключения, BDRip-AVC] Dub + Original + Sub (eng)

Сообщение aLaVodka » 12 янв 2017, 12:50

Бен-Гур / Ben-Hur
«Брат против брата. Раб против империи»

Страна: США
Жанр: боевик, драма, приключения
Год выпуска: 2016
Продолжительность: 02:04:43

Перевод: Профессиональный (дублированный) (iTunes)
Оригинальная аудиодорожка: английский
Субтитры: английские (полные, SDH)
Навигация по главам: есть

Режиссер: Тимур Бекмамбетов / Timur Bekmambetov

В ролях: Джек Хьюстон (Judah Ben-Hur), Тоби Кеббелл (Messala Severus), Родриго Санторо (Jesus), Назанин Бониади (Esther), Айелет Зурер (Naomi Ben-Hur), Йохан Филип Асбек (Pontius Pilate), София Блэк-Д’Элиа (Tirzah Ben-Hur), Морган Фриман (Ilderim), Марван Кензари (Druses), Мойзес Ариас (Dismas), Джеймс Космо (Quintus), Халук Бильгинер (Simonides)

Описание: История Бен-Гура, потомка знатного иудейского рода, который был предан своим лучшим другом-римлянином. Проведя много лет в рабстве на римских галерах, Бен-Гур в итоге получает возможность вернуться на родину и отомстить обидчику.

Качество: BDRip-AVC (исходник - BDRemux|Ben.Hur.2016.1080p.BluRay.REMUX.AVC.DTS-HD.MA.7.1-FGT)
Формат видео: MKV

Видео: x264, 1008x420 (2.40:1) 23,976 fps, ~1922 kbps, 0.189 bit/pixel
Аудио 1: 48 kHz, AC3 Dolby Digital, 5.1 (Front: L C R, Side: L R, LFE) ch, ~384 kbps, [русский]
Аудио 2: 48 kHz, AC3 Dolby Digital, 2.0 (Front: L R) ch, ~192 kbps, [английский]

Формат субтитров: softsub (SRT)
Format : Matroska
Format version : Version 4 / Version 2
File size : 2.22 GiB
Duration : 2h 4 min
Overall bit rate : 2 553 kb/s
Movie name : Бен-Гур / Ben-Hur (2016) :: AFM ::
Encoded date : UTC 2017-01-12 09:37:07
Writing application : mkvmerge v8.3.0 ('Over the Horizon') 32bit
Writing library : libebml v1.3.1 + libmatroska v1.4.2

Video
ID : 1
Format : AVC
Format/Info : Advanced Video Codec
Format profile : [email protected]
Format settings, CABAC : Yes
Format settings, ReFrames : 10 frames
Codec ID : V_MPEG4/ISO/AVC
Duration : 2h 4 min
Bit rate : 1 926 kb/s
Width : 1 008 pixels
Height : 420 pixels
Display aspect ratio : 2.40:1
Frame rate mode : Constant
Frame rate : 23.976 (24000/1001) FPS
Color space : YUV
Chroma subsampling : 4:2:0
Bit depth : 8 bits
Scan type : Progressive
Bits/(Pixel*Frame) : 0.190
Stream size : 1.68 GiB (75%)
Title : BDRip by AFM
Writing library : x264 core 148 r2744+55 950084e t_mod_Custom [[email protected] X86_64]
Encoding settings : cabac=1 / ref=10 / deblock=1:-3:-2 / analyse=0x3:0x113 / me=umh / subme=10 / psy=1 / fade_compensate=0.00 / psy_rd=1.00:0.00 / mixed_ref=1 / me_range=32 / chroma_me=1 / trellis=2 / 8x8dct=1 / cqm=0 / deadzone=21,11 / fast_pskip=0 / chroma_qp_offset=-2 / threads=6 / lookahead_threads=1 / sliced_threads=0 / nr=0 / decimate=1 / interlaced=0 / bluray_compat=0 / constrained_intra=0 / fgo=0 / bframes=12 / b_pyramid=2 / b_adapt=2 / b_bias=0 / direct=1 / weightb=1 / open_gop=0 / weightp=2 / keyint=240 / keyint_min=23 / scenecut=40 / intra_refresh=0 / rc_lookahead=40 / rc=crf / mbtree=0 / crf=18.8100 / qcomp=0.65 / qpmin=0:0:0 / qpmax=69:69:69 / qpstep=4 / vbv_maxrate=50000 / vbv_bufsize=62500 / crf_max=0.0 / nal_hrd=none / filler=0 / ip_ratio=1.33 / pb_ratio=1.26 / aq=3:0.80 / aq-sensitivity=10.00 / aq-factor=1.00:1.00:1.00 / aq2=0 / aq3=0 / zones=172555,179423,q=30
Language : English
Default : Yes
Forced : No

Audio #1
ID : 2
Format : AC-3
Format/Info : Audio Coding 3
Mode extension : CM (complete main)
Format settings, Endianness : Big
Codec ID : A_AC3
Duration : 2h 4 min
Bit rate mode : Constant
Bit rate : 384 kb/s
Channel(s) : 6 channels
Channel positions : Front: L C R, Side: L R, LFE
Sampling rate : 48.0 kHz
Frame rate : 31.250 FPS (1536 spf)
Compression mode : Lossy
Stream size : 343 MiB (15%)
Title : Dub, AC3 5.1 ~384 kbps
Language : Russian
Default : Yes
Forced : No

Audio #2
ID : 3
Format : AC-3
Format/Info : Audio Coding 3
Mode extension : CM (complete main)
Format settings, Endianness : Big
Codec ID : A_AC3
Duration : 2h 4 min
Bit rate mode : Constant
Bit rate : 192 kb/s
Channel(s) : 2 channels
Channel positions : Front: L R
Sampling rate : 48.0 kHz
Frame rate : 31.250 FPS (1536 spf)
Compression mode : Lossy
Stream size : 171 MiB (8%)
Title : Original, AC3 2.0 ~192 kbps
Language : English
Default : No
Forced : No

Text #1
ID : 4
Format : UTF-8
Codec ID : S_TEXT/UTF8
Codec ID/Info : UTF-8 Plain Text
Language : English
Default : No
Forced : No

Text #2
ID : 5
Format : UTF-8
Codec ID : S_TEXT/UTF8
Codec ID/Info : UTF-8 Plain Text
Title : SDH
Language : English
Default : No
Forced : No

Menu
00:00:00.000 : en:Chapter 01
00:07:03.881 : en:Chapter 02
00:15:42.942 : en:Chapter 03
00:19:47.895 : en:Chapter 04
00:27:25.852 : en:Chapter 05
00:33:09.362 : en:Chapter 06
00:41:07.214 : en:Chapter 07
00:48:20.063 : en:Chapter 08
00:55:21.651 : en:Chapter 09
01:05:41.228 : en:Chapter 10
01:13:15.891 : en:Chapter 11
01:22:26.900 : en:Chapter 12
01:31:30.193 : en:Chapter 13
01:39:55.656 : en:Chapter 14
01:46:30.801 : en:Chapter 15
01:54:54.637 : en:Chapter 16
x264 [info]: frame I:1379 Avg QP:17.64 size: 48830
x264 [info]: frame P:44546 Avg QP:19.11 size: 19037
x264 [info]: frame B:133498 Avg QP:21.52 size: 6979
x264 [info]: consecutive B-frames: 3.4% 4.2% 12.0% 29.5% 19.4% 22.1% 4.7% 1.6% 1.3% 0.8% 0.5% 0.2% 0.3%
x264 [info]: mb I I16..4: 4.9% 75.4% 19.6%
x264 [info]: mb P I16..4: 1.5% 17.5% 3.6% P16..4: 35.7% 23.7% 11.8% 0.0% 0.0% skip: 6.2%
x264 [info]: mb B I16..4: 0.1% 1.9% 0.8% B16..8: 39.7% 12.1% 3.2% direct: 5.1% skip:37.0% L0:42.9% L1:43.8% BI:13.3%
x264 [info]: 8x8 transform intra:75.0% inter:70.9%
x264 [info]: coded y,uvDC,uvAC intra: 83.3% 76.9% 42.3% inter: 23.8% 15.9% 1.6%
x264 [info]: i16 v,h,dc,p: 18% 15% 7% 60%
x264 [info]: i8 v,h,dc,ddl,ddr,vr,hd,vl,hu: 13% 10% 4% 9% 13% 13% 14% 12% 13%
x264 [info]: i4 v,h,dc,ddl,ddr,vr,hd,vl,hu: 27% 6% 4% 8% 13% 12% 12% 9% 11%
x264 [info]: i8c dc,h,v,p: 33% 29% 21% 17%
x264 [info]: Weighted P-Frames: Y:7.5% UV:3.6%
x264 [info]: ref P L0: 51.9% 12.1% 13.3% 6.3% 4.6% 3.5% 2.8% 1.9% 1.7% 1.7% 0.2% 0.0%
x264 [info]: ref B L0: 80.6% 8.4% 4.1% 2.2% 1.6% 1.2% 1.0% 0.6% 0.3%
x264 [info]: ref B L1: 96.0% 4.0%
x264 [info]: kb/s:1974.58
 
Не забывайте говорить Спасибо. Не уходите с раздачи!   
Торрент: Зарегистрирован [12 янв 2017, 12:50] Для скачивания .torrent
необходима регистрация
Или скачать с помощью
MediaGet
Статус:
Проверен
 
.torrent скачан: 1 раз
Хэш: ba10fc6e1d5c88a041b2eec0952788c0f8ff7d68
Размер: 2.22 ГБ (2 387 960 977 байт)
Стать Автором раздачи
 
 
Раздал: 100 ГБ
Скачал: 0 байт
Ратио: Seed.
Сообщения: 183985
Зарегистрирован: 09 апр 2015, 20:00


  • Похожие торренты
    Ответы
    Просмотры
    Последнее сообщение

Вернуться в Зарубежные фильмы 2016-2017 года

Кто сейчас на конференции

Сейчас эту тему просматривают: нет зарегистрированных пользователей и гости: 1

Ресурс не предоставляет электронные версии произведений, а занимается лишь коллекционированием и каталогизацией ссылок, присылаемых и публикуемых на форуме нашими читателями. Если вы являетесь правообладателем какого-либо представленного материала и не желаете чтобы ссылка на него находилась в нашем каталоге, свяжитесь с нами и мы незамедлительно удалим её. Файлы для обмена на трекере предоставлены пользователями сайта, и администрация не несёт ответственности за их содержание. Просьба не заливать файлы, защищенные авторскими правами, а также файлы нелегального содержания!