Вторая мировая война: цена империи (Чего стоит империя) (13 серий из 13) / World War II - The Price of Empire [2015, Документальный, война, история, HDTVRip 1080p]

 
 Статистика раздачи 
Размер: 21.13 ГБ   |  Зарегистрирован: 12 янв 2017, 12:31   |   .torrent скачан: 0 раз
Сидеров: 3  [ 0 байт/сек ]     Личеров: 1  [ 0 байт/сек ]  
  

Вторая мировая война: цена империи (Чего стоит империя) (13 серий из 13) / World War II - The Price of Empire [2015, Документальный, война, история, HDTVRip 1080p]

Сообщение aLaVodka » 12 янв 2017, 12:31

Вторая мировая война: цена империи (Чего стоит империя) (13 серий из 13) / World War II - The Price of Empire

Год выпуска: 2015
Страна: Великобритания, WildBear Entertainment
Жанр: Документальный, война, история
Продолжительность: 13 х ~ 00:49:34
Перевод: Профессиональный (дублированный)

Описание: Благодаря самому большому видеоархиву в мире мы сможем увидеть, насколько сильно изменился мир за время войны. Сотни часов хроники, освещающей конфликт, военные и политические действия, которые привели к смене традиционной власти. Плюс, то, что мы узнали из архива, мы дополнили свидетельствами ветеранов конфликта из стран всего мира, включая Польшу, Россию, Индию и Британию, записанные эксклюзивно для цикла этих документальных передач. Некоторые моменты будут дополнены анимационными пояснениями тактических действий.

Доп. информация: Авторство релиза - alf62


Тип релиза: HDTVRip 1080p
Контейнер: MKV

Видео: MPEG-4 AVC, ~ 4500 Кбит/с, 1920х1080, (16:9), 25.000 fps
Аудио: Русский AC3, 2 ch, 192 Кбит/с
1. Грядущая буря / The Gathering Storm
В годы между войнами появились диктаторы, случились акции умиротворения и установилась политика III Рейха до вторжения в Польшу. Вторжение Японии в Китай в 1937 превратилось в масштабный конфликт.

2. Странная война / The Phony War
Вторжение в Польшу вынудило объявить войну даже самые сдержанные нации. Премьер-министра Британии сменил Уинстон Черчилль. Ранние военно-морские столкновения начали задавать тон войне.

3. Блицкриг / Blitzkrieg
Война разгорается по всей Западной Европе. Сухопутные войска, десант и ВВС Германии делают её поистине неудержимой силой. Франция уже готова пасть под натиском нацистов.

4. В одиночку / Alone
Люфтваффе пытаются нейтрализовать британские ВВС, но сталкивается с сопротивлением. «Блицкриг» всё равно был приведён в действие, и немцы отправляют подкрепление своим союзникам в Северной Африке.

5. «Барбаросса» / Barbarossa
Переломный момент войны в Европе настал 22 июня 1941 года, когда Гитлер приводит в действие план «Барбаросса», и немцы начинают вторжение в Советский Союз.

6. Позорная дата / A Day in Infamy
Японские войска оккупировали Южный Вьетнам и Камбоджу, но день, изменивший ход войны - 7 декабря, когда японские ВВС атаковали тихоокеанский флот ВМС США в Пёрл-Харбор.

7. Переломный момент / The Turning Point
Успехи Японии в войне на Востоке хоть и ощутимы, но приближение их поражения видно невооружённым глазом, так как они пробудили военную мощь США.

8. Конец начала / The End of the Beginning
Альянс переломил ход войны в свою пользу. Вражеские силы потерпели поражение в Эль-Аламейне, японцы были разгромлены на Гуадалканале, а немцы - под Сталинградом.

9. Начало конца / The Beginning of the End
Впервые происходит конференция лидеров Альянса, чтобы скоординировать свои дальнейшие действия. Японцы разгромлены на море, а Красная Армия начинает своё продвижение на Берлин.

10. Операция «Оверлорд» / Overlord
Под натиском России немцы продолжают отступление, но самое значительное событие этого этапа войны - открытие Второго фронта в Европе и проведение операции «Оверлорд» 6 июня.

11. Адские дни / Hell is on Us
Альянс продолжает наступление в восточном направлении от Нормандии, приближаясь к границе Германии. А на востоке Советский Союз начинает крупнейшую наступательную операцию - операцию «Багратион».

12. Безоговорочная капитуляция / Unconditional Surrender
Союзники успешно пересекают Рейн и продвигаются вглубь Германии, тем временем как Красная Армия полностью вытеснила вражеские войска со своей территории и уже приблизилась к Берлину.

13. Тысяча солнц / A Thousand Suns
Берлин пал - значит, война в Европе закончена. Окинава пала с огромными потерями с обеих сторон из-за подготовки ко вторжению на главный из островов архипелага. Позже было применено ужаснейшее оружие.
Код: Выделить всё
Цена.империи.(01.серия.).Грядущая.буря.2015.AVC.x264.HDTVRip.1080p.alf62.mkv
Формат                                   : Matroska
Версия формата                           : Version 2
Размер файла                             : 1,62 Гбайт
Продолжительность                        : 49 м.
Общий поток                              : 4694 Кбит/сек
Дата кодирования                         : UTC 2017-01-10 10:45:03
Программа кодирования                    : mkvmerge v7.8.0 ('River Man') 32bit built on Apr  3 2015 12:11:22
Библиотека кодирования                   : libebml v1.3.1 + libmatroska v1.4.2

Видео
Идентификатор                            : 1
Формат                                   : AVC
Формат/Информация                        : Advanced Video Codec
Профиль формата                          : [email protected]
Параметр CABAC формата                   : Да
Параметр ReFrames формата                : 9 кадров
Идентификатор кодека                     : V_MPEG4/ISO/AVC
Продолжительность                        : 49 м.
Битрейт                                  : 4500 Кбит/сек
Ширина                                   : 1920 пикселей
Высота                                   : 1080 пикселей
Соотношение сторон                       : 16:9
Режим частоты кадров                     : Постоянный
Частота кадров                           : 25,000 кадров/сек
Цветовое пространство                    : YUV
Субдискретизация насыщенности            : 4:2:0
Битовая глубина                          : 8 бит
Тип развёртки                            : Прогрессивная
Бит/(Пиксели*Кадры)                      : 0.087
Размер потока                            : 1,53 Гбайт (94%)
Библиотека кодирования                   : x264 core 146 r2538 121396c
Настройки программы                      : cabac=1 / ref=9 / deblock=1:-2:-2 / analyse=0x3:0x113 / me=umh / subme=10 / psy=1 / psy_rd=1.00:0.00 / mixed_ref=1 / me_range=32 / chroma_me=1 / trellis=2 / 8x8dct=1 / cqm=0 / deadzone=21,11 / fast_pskip=0 / chroma_qp_offset=-2 / threads=6 / lookahead_threads=1 / sliced_threads=0 / nr=0 / decimate=0 / interlaced=0 / bluray_compat=0 / constrained_intra=0 / bframes=9 / b_pyramid=2 / b_adapt=2 / b_bias=0 / direct=3 / weightb=1 / open_gop=0 / weightp=2 / keyint=250 / keyint_min=25 / scenecut=40 / intra_refresh=0 / rc_lookahead=40 / rc=2pass / mbtree=0 / bitrate=4500 / ratetol=1.0 / qcomp=0.60 / qpmin=10 / qpmax=51 / qpstep=4 / cplxblur=20.0 / qblur=0.5 / vbv_maxrate=14000 / vbv_bufsize=14000 / nal_hrd=none / filler=0 / ip_ratio=1.40 / pb_ratio=1.30 / aq=1:0.80
Default                                  : Да
Forced                                   : Нет

Аудио
Идентификатор                            : 2
Формат                                   : AC-3
Формат/Информация                        : Audio Coding 3
Расширение режима                        : CM (complete main)
Параметр Endianness формата              : Big
Идентификатор кодека                     : A_AC3
Продолжительность                        : 49 м.
Вид битрейта                             : Постоянный
Битрейт                                  : 192 Кбит/сек
Каналы                                   : 2 канала
Расположение каналов                     : Front: L R
Частота                                  : 48,0 КГц
Битовая глубина                          : 16 бит
Метод сжатия                             : С потерями
Размер потока                            : 68,1 Мбайт (4%)
Default                                  : Да
Forced                                   : Нет




 
Не забывайте говорить Спасибо. Не уходите с раздачи!   
Торрент: Зарегистрирован [12 янв 2017, 12:31] Для скачивания .torrent
необходима регистрация
Или скачать с помощью
MediaGet
Статус:
Проверен
 
.torrent скачан: 0 раз
Хэш: 1128249f9ae49d79f4a8e04ba1436e4d15527f70
Размер: 21.13 ГБ (22 692 498 746 байт)
Стать Автором раздачи
 
 
Раздал: 100 ГБ
Скачал: 0 байт
Ратио: Seed.
Сообщения: 183101
Зарегистрирован: 09 апр 2015, 20:00


  • Похожие торренты
    Ответы
    Просмотры
    Последнее сообщение

Вернуться в Документальные (HD Video)

Кто сейчас на конференции

Сейчас эту тему просматривают: нет зарегистрированных пользователей и гости: 1

Ресурс не предоставляет электронные версии произведений, а занимается лишь коллекционированием и каталогизацией ссылок, присылаемых и публикуемых на форуме нашими читателями. Если вы являетесь правообладателем какого-либо представленного материала и не желаете чтобы ссылка на него находилась в нашем каталоге, свяжитесь с нами и мы незамедлительно удалим её. Файлы для обмена на трекере предоставлены пользователями сайта, и администрация не несёт ответственности за их содержание. Просьба не заливать файлы, защищенные авторскими правами, а также файлы нелегального содержания!