КХЛ 16/17, РЧ: ЦСКА - Металлург Нк [11.01.2017, Хоккей, HD/1080i/КХЛ ТВ HD]

 
 Статистика раздачи 
Размер: 6.2 ГБ   |  Зарегистрирован: 12 янв 2017, 09:40   |   .torrent скачан: 0 раз
Сидеров: 7  [ 0 байт/сек ]     Личеров: 2  [ 0 байт/сек ]  
  

КХЛ 16/17, РЧ: ЦСКА - Металлург Нк [11.01.2017, Хоккей, HD/1080i/КХЛ ТВ HD]

Сообщение aLaVodka » 12 янв 2017, 09:40

КХЛ 16/17, Регулярный чемпионат
ЦСКА - Металлург Нк


Вид спорта: Хоккей
Дата/Год выпуска: 11.01.2017
Язык комментариев: Русский
Телеканал: КХЛ ТВ HD

Описание:
11 января 2017, среда. 19:30 МСК
Стадион: ЦСКА имени Всеволода Боброва (Москва, Россия) , 2 200 зрителей (39 % при вместимости 5 600)
Главный судья: Эдуард Ибатулин (Рудный, Казахстан) Главный судья: Сергей Черезов (Тюмень, Россия)
Автор рипа/записи: _Steep_
Качество: IPTV
Формат видео: TS
Видео: AVC/H.264, 1920x1080, 25 fps, ~6600 kb/s
Аудио: русский, MP2, 2 ch, 48000 Hz, 160 Kbps
02:11:22
Код: Выделить всё
Общее
Идентификатор                            : 1 (0x1)
Полное имя                               : F:\ТВ\Хоккей\КХЛ 2016-2017\(2017.01.11)РЧ_ЦСКА - Металлург Нк_(КХЛ ТВ HD)_IPTV_1080i_steep.ts
Формат                                   : MPEG-TS
Размер файла                             : 6,20 Гбайт
Продолжительность                        : 2 ч. 11 м.
Режим общего битрейта                    : Переменный
Общий поток                              : 6761 Кбит/сек

Видео
Идентификатор                            : 3510 (0xDB6)
Идентификатор меню                       : 1510 (0x5E6)
Формат                                   : AVC
Формат/Информация                        : Advanced Video Codec
Профиль формата                          : High@L4
Параметр CABAC формата                   : Да
Параметр ReFrames формата                : 3 кадра
Идентификатор кодека                     : 27
Продолжительность                        : 2 ч. 11 м.
Битрейт                                  : 6265 Кбит/сек
Ширина                                   : 1920 пикселей
Высота                                   : 1080 пикселей
Соотношение сторон                       : 16:9
Частота кадров                           : 25,000 кадров/сек
Стандарт вещания                         : Component
Цветовое пространство                    : YUV
Субдискретизация насыщенности            : 4:2:0
Битовая глубина                          : 8 бит
Тип развёртки                            : Чересстрочная
Метод сохранения типа развёртки          : Раздельные поля
Порядок развёртки                        : Верхнее поле первое
Бит/(Пиксели*Кадры)                      : 0.121
Размер потока                            : 5,75 Гбайт (93%)
Цветовой диапазон                        : Limited
Основные цвета                           : BT.709
Характеристики трансфера                 : BT.709
Коэффициенты матрицы                     : BT.709

Аудио
Идентификатор                            : 4510 (0x119E)
Идентификатор меню                       : 1510 (0x5E6)
Формат                                   : MPEG Audio
Версия формата                           : Version 1
Профиль формата                          : Layer 2
Идентификатор кодека                     : 3
Продолжительность                        : 2 ч. 11 м.
Вид битрейта                             : Постоянный
Битрейт                                  : 160 Кбит/сек
Каналы                                   : 2 канала
Частота                                  : 48,0 КГц
Метод сжатия                             : С потерями
Задержка видео                           : -120 мс.
Размер потока                            : 150 Мбайт (2%)
Язык                                     : Russian
 
Не забывайте говорить Спасибо. Не уходите с раздачи!   
Торрент: Зарегистрирован [12 янв 2017, 09:40] Для скачивания .torrent
необходима регистрация
Или скачать с помощью
MediaGet
Статус:
Проверен
 
.torrent скачан: 0 раз
Хэш: fb483c29c631d09b43de49a4e5c22b77091f2219
Размер: 6.2 ГБ (6 661 457 768 байт)
Стать Автором раздачи
 
 
Раздал: 100 ГБ
Скачал: 0 байт
Ратио: Seed.
Сообщения: 187871
Зарегистрирован: 09 апр 2015, 20:00


Вернуться в KXЛ

Ресурс не предоставляет электронные версии произведений, а занимается лишь коллекционированием и каталогизацией ссылок, присылаемых и публикуемых на форуме нашими читателями. Если вы являетесь правообладателем какого-либо представленного материала и не желаете чтобы ссылка на него находилась в нашем каталоге, свяжитесь с нами и мы незамедлительно удалим её. Файлы для обмена на трекере предоставлены пользователями сайта, и администрация не несёт ответственности за их содержание. Просьба не заливать файлы, защищенные авторскими правами, а также файлы нелегального содержания!
cron