(Indie, Electronic) [WEB] The XX - I See You - 2017, FLAC (image+.cue), lossless

 
 Статистика раздачи 
Размер: 225.1 МБ   |  Зарегистрирован: 12 янв 2017, 05:16   |   .torrent скачан: 243 раз
Сидеров: 59  [ 0 байт/сек ]     Личеров: 11  [ 0 байт/сек ]  
  

(Indie, Electronic) [WEB] The XX - I See You - 2017, FLAC (image+.cue), lossless

Сообщение aLaVodka » 12 янв 2017, 05:16

The XX / I See You

Жанр: Indie, Electronic
Носитель: WEB
Год издания: 2017
Страна исполнителя (группы): UK
Аудиокодек: FLAC (*.flac)
Тип рипа: image+.cue
Битрейт аудио: lossless
Продолжительность: 00:39:18
Источник (релизер): shop.thexx.info
Наличие сканов в содержимом раздачи: нет
Треклист:
01. Dangerous (4:11)
02. Say Something Loving (3:58)
03. Lips (3:21)
04. A Violent Noise (3:47)
05. Performance (4:06)
06. Replica (4:09)
07. Brave For You (4:13)
08. On Hold (3:44)
09. I Dare You (3:53)
10. Test Me (3:56)
Код: Выделить всё
REM GENRE Indie
REM DATE 2017
REM DISCID 8509360A
REM COMMENT "ALEXXX & Co."
PERFORMER "The xx"
TITLE "I See You"
FILE "01 - Dangerous.flac" WAVE
  TRACK 01 AUDIO
    PERFORMER "The xx"
    TITLE "Dangerous"
    INDEX 01 00:00:00
FILE "02 - Say Something Loving.flac" WAVE
  TRACK 02 AUDIO
    PERFORMER "The xx"
    TITLE "Say Something Loving"
    INDEX 01 00:00:00
FILE "03 - Lips.flac" WAVE
  TRACK 03 AUDIO
    PERFORMER "The xx"
    TITLE "Lips"
    INDEX 01 00:00:00
FILE "04 - A Violent Noise.flac" WAVE
  TRACK 04 AUDIO
    PERFORMER "The xx"
    TITLE "A Violent Noise"
    INDEX 01 00:00:00
FILE "05 - Performance.flac" WAVE
  TRACK 05 AUDIO
    PERFORMER "The xx"
    TITLE "Performance"
    INDEX 01 00:00:00
FILE "06 - Replica.flac" WAVE
  TRACK 06 AUDIO
    PERFORMER "The xx"
    TITLE "Replica"
    INDEX 01 00:00:00
FILE "07 - Brave For You.flac" WAVE
  TRACK 07 AUDIO
    PERFORMER "The xx"
    TITLE "Brave For You"
    INDEX 01 00:00:00
FILE "08 - On Hold.flac" WAVE
  TRACK 08 AUDIO
    PERFORMER "The xx"
    TITLE "On Hold"
    INDEX 01 00:00:00
FILE "09 - I Dare You.flac" WAVE
  TRACK 09 AUDIO
    PERFORMER "The xx"
    TITLE "I Dare You"
    INDEX 01 00:00:00
FILE "10 - Test Me.flac" WAVE
  TRACK 10 AUDIO
    PERFORMER "The xx"
    TITLE "Test Me"
    INDEX 01 00:00:00
Код: Выделить всё
-----------------------

DON'T MODIFY THIS FILE

-----------------------

PERFORMER: auCDtect Task Manager, ver. 1.6.0 RC1 build 1.6.0.1
Copyright (c) 2008-2010 y-soft. All rights reserved
[url=http://y-soft.org]http://y-soft.org[/url]

ANALYZER: auCDtect: CD records authenticity detector, version 0.8.2
Copyright (c) 2004 Oleg Berngardt. All rights reserved.
Copyright (c) 2004 Alexander Djourik. All rights reserved.

FILE: 08 - On Hold.flac
  Size: 23504666 Hash: FD5453E45231AE47823C5141235AC4C5 Accuracy: -m0
  Conclusion: CDDA 100%
  Signature: 042E32025261B985ABD1A664F89C7E1B3EC1D301
FILE: 09 - I Dare You.flac
  Size: 24163616 Hash: 60AF41FED02FD1231287182A643866C2 Accuracy: -m0
  Conclusion: CDDA 99%
  Signature: 24B09682A97F53BDB21F47094637425A598A8FDA
FILE: 10 - Test Me.flac
  Size: 19446984 Hash: CEB9E67590B8907AB6F67C30AEB0171A Accuracy: -m0
  Conclusion: CDDA 76%
  Signature: 14C59CA72E5F8A82013E2328E4AE29D990730B80
FILE: 01 - Dangerous.flac
  Size: 26854113 Hash: 9A72D8896B67FC6EE8BEEE36C146D843 Accuracy: -m0
  Conclusion: CDDA 100%
  Signature: C83B497397DE4383DBFCC17AFDCAA8E77D275AAA
FILE: 02 - Say Something Loving.flac
  Size: 27454884 Hash: C309729CFD14116B5D55DD11699189AA Accuracy: -m0
  Conclusion: CDDA 100%
  Signature: FFD6578844146F0AE700F6EBC9B4E5A8587E6573
FILE: 03 - Lips.flac
  Size: 21372614 Hash: 63E6195386E6C79ED91788F6B9BB0AF1 Accuracy: -m0
  Conclusion: CDDA 100%
  Signature: 3C35DFC7E8E06A194AB00279E1B371C4CDD5F069
FILE: 04 - A Violent Noise.flac
  Size: 22725671 Hash: BDC58D08B0FF7DE23AA611FD7F0E3D37 Accuracy: -m0
  Conclusion: CDDA 100%
  Signature: 9E3B1CE3FA357046B06CD8084F48EE40846DE6B6
FILE: 05 - Performance.flac
  Size: 22968283 Hash: 634DD657EEDFDA068165CBD9BD6E4AC0 Accuracy: -m0
  Conclusion: CDDA 100%
  Signature: 6A0A80532DE0C95A56BCC79AF83F389701265165
FILE: 06 - Replica.flac
  Size: 24386256 Hash: 0AE51358177ADD2357E0058BBB7D9DE7 Accuracy: -m0
  Conclusion: CDDA 100%
  Signature: 2ECAF45FF2D1793756730074FEAE464154E8A3ED
FILE: 07 - Brave For You.flac
  Size: 22508855 Hash: 0BA96562102074AC244AA36A60078F36 Accuracy: -m0
  Conclusion: CDDA 100%
  Signature: B4D25CB4EF22A309855DC19F9531C364DCAD75CC
 
Не забывайте говорить Спасибо. Не уходите с раздачи!   
Торрент: Зарегистрирован [12 янв 2017, 05:16] Для скачивания .torrent
необходима регистрация
Или скачать с помощью
MediaGet
Статус:
Проверен
 
.torrent скачан: 243 раз
Хэш: f4e5bf385b737835028919847601cd45b90fcfea
Размер: 225.1 МБ (236 030 500 байт)
Стать Автором раздачи
 
 
Раздал: 100 ГБ
Скачал: 0 байт
Ратио: Seed.
Сообщения: 184161
Зарегистрирован: 09 апр 2015, 20:00


  • Похожие торренты
    Ответы
    Просмотры
    Последнее сообщение

Вернуться в Indie, Post-Rock & Post-Punk (lossless)

Кто сейчас на конференции

Сейчас эту тему просматривают: нет зарегистрированных пользователей и гости: 1

Ресурс не предоставляет электронные версии произведений, а занимается лишь коллекционированием и каталогизацией ссылок, присылаемых и публикуемых на форуме нашими читателями. Если вы являетесь правообладателем какого-либо представленного материала и не желаете чтобы ссылка на него находилась в нашем каталоге, свяжитесь с нами и мы незамедлительно удалим её. Файлы для обмена на трекере предоставлены пользователями сайта, и администрация не несёт ответственности за их содержание. Просьба не заливать файлы, защищенные авторскими правами, а также файлы нелегального содержания!