Х*ёвый Апокалипсис / X-Men: Apocalypse (Сиплый\Брайан Сингер) [2016, импровизационный смешной перевод, BDRip]

 
 Статистика раздачи 
Размер: 2.2 ГБ   |  Зарегистрирован: 12 янв 2017, 02:26   |   .torrent скачан: 3 раз
Сидеров: 12  [ 0 байт/сек ]     Личеров: 3  [ 0 байт/сек ]  
  

Х*ёвый Апокалипсис / X-Men: Apocalypse (Сиплый\Брайан Сингер) [2016, импровизационный смешной перевод, BDRip]

Сообщение aLaVodka » 12 янв 2017, 02:26

Х*ёвый Апокалипсис / X-Men: Apocalypse

Дата/Год выпуска: 2016
Страна: Россия\США
Жанр: импровизационный смешной перевод
Продолжительность: 02:23:56
Перевод: Авторский (одноголосый закадровый)
Доп. инфо о переводе: Сеня Флакон
Русские субтитры: нет

Режиссер: Сиплый\Брайан Сингер

Описание: Седьмая телега от нашего ТО. Отмороженные пацики из бригады академика с погонялом Профессор Икс наехали на Пахана всея Земли, который реально попутал понятия и решил замастрячить конкретную зону из всей планеты, а цивильных гавриков ваще в расход пустить.

Доп. информация: Как всегда, импровизация с ненормативной лексикой и дискриминацией всех, кто попался на глаза пацану у микрофона. Тока на этот раз пацан зазырил оригинальный фильм за пару дней до озвучки. Тем, кому не в масть такой загон, и вставляет тока озвучка по сценарию, а также ханжам и неадекватам смотреть запрещено.

Для тех, кому в масть или просто отдуплились, наши предыдущие озвучки:



Сэмпл: https://yadi.sk/i/3jg0hV-c38WbtW

качество: BDRip
формат: AVI
Видео: XviD, 720x304, 2.35:1, 1 982 Kbps, 23.976 fps
Аудио: mp3, 192 Kbps, 44.1 KHz, 2 channels
Код: Выделить всё
ideo
ID                          : 0
Format                      : MPEG-4 Visual
Format profile              : Advanced Simple@L5
Format settings, BVOP       : 1
Format settings, QPel       : No
Format settings, GMC        : No warppoints
Format settings, Matrix     : Custom
Codec ID                    : XVID
Codec ID/Hint               : XviD
Duration                    : 2h 23mn
Bit rate                    : 1 982 Kbps
Width                       : 720 pixels
Height                      : 304 pixels
Display aspect ratio        : 2.35:1
Frame rate                  : 23.976 fps
Color space                 : YUV
Chroma subsampling          : 4:2:0
Bit depth                   : 8 bits
Scan type                   : Progressive
Compression mode            : Lossy
Bits/(Pixel*Frame)          : 0.378
Stream size                 : 1.99 GiB (91%)
Writing library             : XviD 66

Audio
ID                          : 1
Format                      : MPEG Audio
Format version              : Version 1
Format profile              : Layer 3
Codec ID                    : 55
Codec ID/Hint               : MP3
Duration                    : 1h 30mn
Source duration             : 2h 23mn
Bit rate mode               : Constant
Bit rate                    : 192 Kbps
Channel(s)                  : 2 channels
Sampling rate               : 44.1 KHz
Compression mode            : Lossy
Stream size                 : 198 MiB (9%)
Alignment                   : Aligned on interleaves
Interleave, duration        : 26 ms (0.63 video frame)








 
Не забывайте говорить Спасибо. Не уходите с раздачи!   
Торрент: Зарегистрирован [12 янв 2017, 02:26] Для скачивания .torrent
необходима регистрация
Или скачать с помощью
MediaGet
Статус:
Проверен
 
.torrent скачан: 3 раз
Хэш: d95da1be0bdfe99113eacffd4db39e932a660b76
Размер: 2.2 ГБ (2 360 757 768 байт)
Стать Автором раздачи
 
 
Раздал: 100 ГБ
Скачал: 0 байт
Ратио: Seed.
Сообщения: 189176
Зарегистрирован: 09 апр 2015, 20:00


  • Похожие торренты
    Ответы
    Просмотры
    Последнее сообщение

Вернуться в Фильмы со смешным переводом (пародии)

Ресурс не предоставляет электронные версии произведений, а занимается лишь коллекционированием и каталогизацией ссылок, присылаемых и публикуемых на форуме нашими читателями. Если вы являетесь правообладателем какого-либо представленного материала и не желаете чтобы ссылка на него находилась в нашем каталоге, свяжитесь с нами и мы незамедлительно удалим её. Файлы для обмена на трекере предоставлены пользователями сайта, и администрация не несёт ответственности за их содержание. Просьба не заливать файлы, защищенные авторскими правами, а также файлы нелегального содержания!
cron