Больше, чем любовь 2 часть (86 выпускoв) (Татьяна Малова) [2011-2016, Документальный цикл, DVB]

 
 Статистика раздачи 
Размер: 121.15 ГБ   |  Зарегистрирован: 12 янв 2017, 01:24   |   .torrent скачан: 0 раз
Сидеров: 2  [ 0 байт/сек ]     Личеров: 1  [ 0 байт/сек ]  
  

Больше, чем любовь 2 часть (86 выпускoв) (Татьяна Малова) [2011-2016, Документальный цикл, DVB]

Сообщение aLaVodka » 12 янв 2017, 01:24

Больше, чем любовь 2 часть

Дата/Год выпуска: 2011-2016
Страна: Россия, ООО Студия Фишка-фильм
Жанр: Документальный цикл
Продолжительность: 00:38:53
Перевод: Не требуется
Русские субтитры: нет
Рип: dean10,

Оригинальная аудиодорожка: русский
Режиссер: Татьяна Малова

Телеканал: Культура
Описание:
Истории великой любви, запечатленные в письмах и документах, стихах и картинах - это тоже события культуры. В центре внимания - незаурядные личности, оставившие след в культуре и собственной жизнью показавшие, до каких высот способен подняться человек в своих чувствах. Cоздатели фильмов рассказывают о любовных романах великих и известных людей. Превратности их личной судьбы, переплетаясь с поворотами истории, кипящими страстями, верностью и изменами героев фильмов сопрягаются со словами "больше, чем любовь", наполняя каждый раз смысл этого выражения новым глубоко индивидуальным содержанием.


12.01.2017 _ добавил: Стржельчик Владислав и Шувалова Людмила,
перезаливаем
Андреевы Даниил и Алла
Арагон Луи и Триоле Эльза
Бабочкин Борис и Георгиева Екатерина
Бернес Марк и Бодрова Лилия
Бирон Эрнст и императрица Анна Иоанновна
Вартанян Геворка и Гоар
Васильевы Борис и Зоря
Вернадские Владимир и Наталья
Врубель Михаил и Забела-Врубель Надежда
Гайдай Леонид и Гребешкова Нина
Герман Алексей и Кармалита Светлана
Горины Григорий и Любовь
Гротовский Ежи и Обидняк Алина
Долгоруков Иван и Шереметева Наталья
Ефремов Олег и Покровская Алла
Заболоцкий Николай и Клыкова Екатерина
Зильбер Лев и Ермольева Зинаида
Зощенко Михаил и Кербиц Вера
Ильинский Игорь и Битрих-Еремеева Татьяна
Иофан Борис и Сассо-Руффо Ольга
Кадочников Павел и Котович Розалия
Капица Петр и Крылова Анна
Касаткина Людмила и Колосов Сергей
Касаткина Людмила и Колосов Сергей
Ключевский Василий и Бородина Анисья
Ковалевская Софья
Кончаловский Петр и Сурикова Ольга
Кузьмина Елена и Ромм Михаил
Кулиш Савва и Арбузова Варвара
Кьеркегор Серен и Ольсен Регина
Лебедев Евгений и Товстоногова Натэлла
Леонов Леонид и Сабашникова Татьяна
Лесков Николай
Лотман Юрий и Минц Зара
Лютер Мартин и фон Бора Катарина
Макарова Людмила и Копелян Ефим
Митта Александр и Майорова Лия
Мордюкова Нонна
Образцова Елена и Жюрайтис Альгис
Островский Александр и Косицкая Любовь
Павлова Анна
Паустовский Константин и Загорская Екатерина
Петров-Водкин Кузьма и Йованович Мария Жозефина
Пиросмани Нико и де Севр Маргарита
Римский-Корсаков Николай и Пургольд Надежда
Розанов Василий и Бутягина Варвара
Рокоссовский Константин
Роллан Ромен и Кудашева Мария
Рубинштейн Ида и д'Аннунцио Габриэле
Рузвельт Франклин и Элеонора
Русланова Лидия
Саломе Лу и Андреас Фридрих Карл
Самойлов Давид
Сент-Экзюпери Антуан и Консуэло
Серов Валентин и Трубникова Ольга
Станиславский Константин и Лилина Мария
Стржельчик Владислав и Шувалова Людмила
Тушнова Вероника и Яшин Алексей
Филонов Павел и Серебрякова Екатерина
Хемингуэй Эрнест и Уэлш Мэри
Чаадаев Петр и Норовa Авдотья
Чиаурели Софико и Махарадзе Котэ
Чудаковы Александр и Мариэтта
Шагал Марк и Розенфельд Белла
Ширвиндт Александр и Белоусова Наталья
Шпаликов Геннадий и Рязанцева Наталья
Штейнберг Эдуард и Маневич Галина
Юматов Георгий и Крепкогорская Муза
Сэмпл: http://multi-up.com/1036289

качество: DVB
формат: MPEG-PS
Видео: MPEG 2, 720x576, (4:3), 25 fps, 3 314 kbps
Аудио: Russian: MP2, 48 kHz, 2 ch, 192 kbps
Код: Выделить всё
General
Complete name                            : Z:\Больше, чем любовь 2 часть\Вартанян Геворка и Гоар.mpg
Format                                   : MPEG-PS
File size                                : 1.30 GiB
Duration                                 : 51mn 59s
Overall bit rate mode                    : Variable
Overall bit rate                         : 3 577 Kbps

Video
ID                                       : 224 (0xE0)
Format                                   : MPEG Video
Format version                           : Version 2
Format profile                           : Main@Main
Format settings, BVOP                    : Yes
Format settings, Matrix                  : Custom
Format settings, GOP                     : M=3, N=12
Format settings, picture structure       : Frame
Duration                                 : 51mn 59s
Bit rate mode                            : Variable
Bit rate                                 : 3 314 Kbps
Maximum bit rate                         : 5 000 Kbps
Width                                    : 720 pixels
Height                                   : 576 pixels
Display aspect ratio                     : 4:3
Frame rate                               : 25.000 fps
Standard                                 : PAL
Color space                              : YUV
Chroma subsampling                       : 4:2:0
Bit depth                                : 8 bits
Scan type                                : Interlaced
Scan order                               : Top Field First
Compression mode                         : Lossy
Bits/(Pixel*Frame)                       : 0.320
Time code of first frame                 : 00:00:00:00
Time code source                         : Group of pictures header
GOP, Open/Closed                         : Open
GOP, Open/Closed of first frame          : Closed
Stream size                              : 1.20 GiB (93%)

Audio
ID                                       : 192 (0xC0)
Format                                   : MPEG Audio
Format version                           : Version 1
Format profile                           : Layer 2
Duration                                 : 51mn 59s
Bit rate mode                            : Constant
Bit rate                                 : 192 Kbps
Channel(s)                               : 2 channels
Sampling rate                            : 48.0 KHz
Compression mode                         : Lossy
Stream size                              : 71.4 MiB (5%)
 
Не забывайте говорить Спасибо. Не уходите с раздачи!   
Торрент: Зарегистрирован [12 янв 2017, 01:24] Для скачивания .torrent
необходима регистрация
Или скачать с помощью
MediaGet
Статус:
Проверен
 
.torrent скачан: 0 раз
Хэш: a70357bb974b6aeb5aa2d18e69a8f3a42c5e126a
Размер: 121.15 ГБ (130 088 966 144 байт)
Стать Автором раздачи
 
 
Раздал: 100 ГБ
Скачал: 0 байт
Ратио: Seed.
Сообщения: 184161
Зарегистрирован: 09 апр 2015, 20:00


  • Похожие торренты
    Ответы
    Просмотры
    Последнее сообщение

Вернуться в Биографии. Личности и кумиры

Кто сейчас на конференции

Сейчас эту тему просматривают: нет зарегистрированных пользователей и гости: 1

Ресурс не предоставляет электронные версии произведений, а занимается лишь коллекционированием и каталогизацией ссылок, присылаемых и публикуемых на форуме нашими читателями. Если вы являетесь правообладателем какого-либо представленного материала и не желаете чтобы ссылка на него находилась в нашем каталоге, свяжитесь с нами и мы незамедлительно удалим её. Файлы для обмена на трекере предоставлены пользователями сайта, и администрация не несёт ответственности за их содержание. Просьба не заливать файлы, защищенные авторскими правами, а также файлы нелегального содержания!