Просто кровь / Blood Simple (Джоэл Коэн / Joel Coen, Итэн Коэн / Ethan Coen) [1984, США, триллер, криминал, BDRemux] [Director's Cut] [Criterion #834] 2xMVO (CP Digital, СОЮЗ Видео) + 2xAVO (Гаврилов, Сербин) + Sub Rus, Eng + Original Eng

 
 Статистика раздачи 
Размер: 24.65 ГБ   |  Зарегистрирован: 12 янв 2017, 00:53   |   .torrent скачан: 0 раз
Сидеров: 1  [ 0 байт/сек ]     Личеров: 0  [ 0 байт/сек ]  
  

Просто кровь / Blood Simple (Джоэл Коэн / Joel Coen, Итэн Коэн / Ethan Coen) [1984, США, триллер, криминал, BDRemux] [Director's Cut] [Criterion #834] 2xMVO (CP Digital, СОЮЗ Видео) + 2xAVO (Гаврилов, Сербин) + Sub Rus, Eng + Original Eng

Сообщение aLaVodka » 12 янв 2017, 00:53

Просто кровь / Blood Simple
Режиссёрская версия / Director's Cut


Страна: США
Студия: River Road Production
Жанр
: триллер, криминал
Год выпуска: 1984
Продолжительность: 01:35:55

Перевод: Профессиональный (многоголосый закадровый) - CP Digital
Перевод: Профессиональный (многоголосый закадровый) - СОЮЗ Видео
Перевод: Авторский (одноголосый закадровый) - Андрей Гаврилов
Перевод: Авторский (одноголосый закадровый) - Юрий Сербин
Cубтитры: русские (2 вида), английские
Оригинальная аудиодорожка: английский

Режиссер: Джоэл Коэн / Joel Coen, Итэн Коэн / Ethan Coen

В ролях: Джон Гец, Фрэнсис МакДорманд, Дэн Хедайя, М. Эммет Уолш, Сэмм-Арт Уильямс, Дебора Нойманн, Ракель Гавиа, Ван Брукс, Сеньор Марко, Уильям Кремер, Лорен Бивенс, Боб МакАдамс, Шеннон Сэдвик, Нэнси Фингер, Уильям Престон Робертсон, Холли Хантер, Барри Зонненфельд

Описание: Молодая женщина Эбби не удовлетворена своим браком с Марти, грубым владельцем бара из Техаса. Между Эбби и барменом Рэем вспыхивает страсть. Обманутый муж догадывается об измене и нанимает частного сыщика, чтобы выследить, а затем убить любовников.

Новый ремастер от "Criterion". Русские дороги и субтитры . Подогнано без пересжатия.
За оцифровку перевода СОЮЗ Видео спасибо capefear
Перевод Ю. Сербина доступен благодаря: Goldtwait, DREADG, Джосс, marshall cogburn, ochkarik1, arvideo, vik19662007, elena 311, AnryV, -RaMiS-, Pain_70, Atherix, KOtt97.

Тип релиза: BDRemux 1080p
Контейнер: MKV
Видео
: 1920x1080 (16:9), , 23.976 fps, AVC, 36,7 Mbps, 0.446 bits/pixel
Аудио: 48 kHz, AC3 Dolby Digital, 3/2 (L,C,R,l,r) + LFE ch, ~448 kbps - CP Digital
Аудио: 48 kHz, AC3 Dolby Digital, 2 ch, ~192.00 kbps avg - СОЮЗ Видео
Аудио: 48 kHz, AC3 Dolby Digital, 2 ch, ~640.00 kbps avg - Сербин
Аудио: 48 kHz, AC3 Dolby Digital, 2 ch, ~640.00 kbps avg - Гаврилов,
Аудио: 48 kHz, DTS, 3/2 (L,C,R,l,r) + LFE ch, ~1 509 kbps, 24-bit - оригинал
Аудио: 48 kHz , AAC-LC 2.0, ~69 kbps - комментарии художественного директора Forever Young Film Preservation Кеннета Лоринга
Формат субтитров: softsub (SRT)

General
Unique ID : 173215633329492013939959673503268375587 (0x82501E14E861D7378FD24C6094968C23)
Complete name : D:\Мои раздачи HD\Blood.Simple.1984.BDRemux.mkv
Format : Matroska
Format version : Version 4 / Version 2
File size : 24.7 GiB
Duration : 1h 35mn
Overall bit rate mode : Variable
Overall bit rate : 36.8 Mbps
Encoded date : UTC 2017-01-11 21:08:19
Writing application : mkvmerge v9.5.0 ('Quiet Fire') 64bit
Writing library : libebml v1.3.4 + libmatroska v1.4.5

Video
ID : 1
Format : AVC
Format/Info : Advanced Video Codec
Format profile : High@L4.1
Format settings, CABAC : Yes
Format settings, ReFrames : 4 frames
Codec ID : V_MPEG4/ISO/AVC
Duration : 1h 35mn
Bit rate mode : Variable
Bit rate : 30.9 Mbps
Maximum bit rate : 37.0 Mbps
Width : 1 920 pixels
Height : 1 080 pixels
Display aspect ratio : 16:9
Frame rate mode : Constant
Frame rate : 23.976 (24000/1001) fps
Color space : YUV
Chroma subsampling : 4:2:0
Bit depth : 8 bits
Scan type : Progressive
Bits/(Pixel*Frame) : 0.622
Stream size : 20.7 GiB (84%)
Title : Video
Language : English
Default : Yes
Forced : No

Audio #1
ID : 2
Format : AC-3
Format/Info : Audio Coding 3
Mode extension : CM (complete main)
Format settings, Endianness : Big
Codec ID : A_AC3
Duration : 1h 35mn
Bit rate mode : Constant
Bit rate : 448 Kbps
Channel(s) : 6 channels
Channel positions : Front: L C R, Side: L R, LFE
Sampling rate : 48.0 KHz
Frame rate : 31.250 fps (1536 spf)
Compression mode : Lossy
Stream size : 306 MiB (1%)
Title : CP Digital
Language : Russian
Default : Yes
Forced : No

Audio #2
ID : 3
Format : AC-3
Format/Info : Audio Coding 3
Mode extension : CM (complete main)
Format settings, Endianness : Big
Codec ID : A_AC3
Duration : 1h 35mn
Bit rate mode : Constant
Bit rate : 192 Kbps
Channel(s) : 2 channels
Channel positions : Front: L R
Sampling rate : 48.0 KHz
Frame rate : 31.250 fps (1536 spf)
Compression mode : Lossy
Stream size : 131 MiB (1%)
Title : СОЮЗ Видео
Language : Russian
Default : No
Forced : No

Audio #3
ID : 4
Format : AC-3
Format/Info : Audio Coding 3
Mode extension : CM (complete main)
Format settings, Endianness : Big
Codec ID : A_AC3
Duration : 1h 35mn
Bit rate mode : Constant
Bit rate : 640 Kbps
Channel(s) : 2 channels
Channel positions : Front: L R
Sampling rate : 48.0 KHz
Frame rate : 31.250 fps (1536 spf)
Compression mode : Lossy
Stream size : 438 MiB (2%)
Title : Андрей Гаврилов
Language : Russian
Default : No
Forced : No

Audio #4
ID : 5
Format : AC-3
Format/Info : Audio Coding 3
Mode extension : CM (complete main)
Format settings, Endianness : Big
Codec ID : A_AC3
Duration : 1h 35mn
Bit rate mode : Constant
Bit rate : 640 Kbps
Channel(s) : 2 channels
Channel positions : Front: L R
Sampling rate : 48.0 KHz
Frame rate : 31.250 fps (1536 spf)
Compression mode : Lossy
Stream size : 438 MiB (2%)
Title : Юрий Сербин
Language : Russian
Default : No
Forced : No

Audio #5
ID : 6
Format : DTS
Format/Info : Digital Theater Systems
Format profile : MA / Core
Mode : 16
Format settings, Endianness : Big
Codec ID : A_DTS
Duration : 1h 35mn
Bit rate mode : Variable / Constant
Bit rate : 3 840 Kbps / 1 509 Kbps
Channel(s) : 6 channels
Channel positions : Front: L C R, Side: L R, LFE
Sampling rate : 48.0 KHz
Frame rate : 93.750 fps (512 spf)
Bit depth : 24 bits
Compression mode : Lossless / Lossy
Stream size : 2.61 GiB (11%)
Title : оригинал
Language : English
Default : No
Forced : No

Audio #6
ID : 7
Format : AAC
Format/Info : Advanced Audio Codec
Format profile : LC
Codec ID : A_AAC
Duration : 1h 35mn
Bit rate : 68.4 Kbps
Channel(s) : 2 channels
Channel positions : Front: L R
Sampling rate : 48.0 KHz
Frame rate : 46.875 fps (1024 spf)
Compression mode : Lossy
Stream size : 46.9 MiB (0%)
Title : Комментарии Кеннета Лоринга
Language : English
Default : No
Forced : No

Text #1
ID : 8
Format : UTF-8
Codec ID : S_TEXT/UTF8
Codec ID/Info : UTF-8 Plain Text
Duration : 1h 32mn
Bit rate : 36 bps
Count of elements : 552
Stream size : 24.8 KiB (0%)
Title : Субтитры R5
Language : Russian
Default : No
Forced : No

Text #2
ID : 9
Format : UTF-8
Codec ID : S_TEXT/UTF8
Codec ID/Info : UTF-8 Plain Text
Duration : 1h 32mn
Bit rate : 41 bps
Count of elements : 622
Stream size : 28.2 KiB (0%)
Title : Субтитры d0ber.maNN
Language : Russian
Default : No
Forced : No

Text #3
ID : 10
Format : UTF-8
Codec ID : S_TEXT/UTF8
Codec ID/Info : UTF-8 Plain Text
Duration : 1h 35mn
Bit rate : 32 bps
Count of elements : 846
Stream size : 22.9 KiB (0%)
Title : SDH
Language : English
Default : No
Forced : No
Релиз группы:


 
Не забывайте говорить Спасибо. Не уходите с раздачи!   
Торрент: Зарегистрирован [12 янв 2017, 00:53] Для скачивания .torrent
необходима регистрация
Или скачать с помощью
MediaGet
Статус:
Проверен
 
.torrent скачан: 0 раз
Хэш: 44dbafe12136b92c6ff65ef80d7cfd790717e3d5
Размер: 24.65 ГБ (26 472 287 301 байт)
Стать Автором раздачи
 
 
Раздал: 100 ГБ
Скачал: 0 байт
Ратио: Seed.
Сообщения: 188762
Зарегистрирован: 09 апр 2015, 20:00


  • Похожие торренты
    Ответы
    Просмотры
    Последнее сообщение

Вернуться в HD Video на модерации

Ресурс не предоставляет электронные версии произведений, а занимается лишь коллекционированием и каталогизацией ссылок, присылаемых и публикуемых на форуме нашими читателями. Если вы являетесь правообладателем какого-либо представленного материала и не желаете чтобы ссылка на него находилась в нашем каталоге, свяжитесь с нами и мы незамедлительно удалим её. Файлы для обмена на трекере предоставлены пользователями сайта, и администрация не несёт ответственности за их содержание. Просьба не заливать файлы, защищенные авторскими правами, а также файлы нелегального содержания!
cron