Принц Египта / The Prince of Egypt (1998) WEBRip 1080p

 
 Статистика раздачи 
Размер: 7.4 ГБ   |  Зарегистрирован: 12 янв 2017, 00:48   |   .torrent скачан: 152 раз
Сидеров: 21  [ 0 байт/сек ]     Личеров: 14  [ 0 байт/сек ]  
  

Принц Египта / The Prince of Egypt (1998) WEBRip 1080p

Сообщение Lester » 12 янв 2017, 00:48



Информация о фильме
Название: Принц Египта
Оригинальное название: The Prince of Egypt
Год выхода: 1998
Жанр: мультфильм, приключения, семейный, история
Режиссер: Бренда Чапмэн, Саймон Уэллс, Стив Хикнер
В ролях: Вэл Килмер, Ральф Файнс, Мишель Пфайффер, Сандра Баллок, Джефф Голдблюм, Дэнни Гловер, Патрик Стюарт, Хелен Миррен, Стив Мартин, Мартин Шорт и др.
О фильме: Эта история случилась на заре цивилизации в Древнем Египте. Стремительный и величавый Нил вынес на берег перед дворцом фараона корзину с младенцем. Могущественный правитель усыновил крошечного мальчика и дал ему имя Моисей.

Шли годы... Моисей и его брат Рамзес росли вместе. Но придет день, когда один из братьев станет владыкой величайшей империи на земле, а другой - святым... Противоборство героев навсегда изменит их судьбы и историю человечества.

Страна: США, DreamWorks Animation, DreamWorks SKG
Продолжительность: 01:38:42
Перевод:
Професиональный (полное дублирование) Пифагор
Професиональный (полное дублирование) Первый канал
Профессиональный (многоголосый закадровый) - "Премьер Мультимедиа"
Профессиональный (двухголосый закадровый)
Профессиональный (двухголосый закадровый) - Людмила Ильина и Вадим Андреев
Авторский (Одноголосый закадровый) - Сергей Визгунов
Авторский (Одноголосый закадровый) - Николай Антонов



Файл
Кодек: MPEG-4 AVC
Качество: WEBRip 1080p
Видео: 7872 Кбит/с, 1920x1080
Звук:
Русский (AC3, 2 ch, 192 Кбит/с) Пифагор
Русский (AC3, 2 ch, 192 Кбит/с) Первый канал
Русский (AC3, 2 ch, 192 Кбит/с) Премьер Мультимедиа
Русский (AC3, 6 ch, 448 Кбит/с) DVO
Русский (AC3, 2 ch, 192 Кбит/с) Людмила Ильина и Вадим Андреев
Русский (AC3, 6 ch, 448 Кбит/с) Сергей Визгунов
Русский (AC3, 2 ch, 192 Кбит/с) Николай Антонов
Украинский (AC3, 2 ch, 192 Кбит/с) MVO (K1)
Английский (AC3, 6 ch, 640 Кбит/с)

Субтитры: Русские, английские

Семпл




Общее
Уникальный идентификатор : 215182172118744132501406974783256448112 (0xA1E294315C39CDF4AA10DCA3F5BECC70)
Полное имя : D:КиноПринц Египта.1998.WEBRip.1080p.Rus.Eng.mkv
Формат : Matroska
Версия формата : Version 4 / Version 2
Размер файла : 7,40 Гбайт
Продолжительность : 1 ч. 38 м.
Режим общего битрейта : Переменный
Общий поток : 10,7 Мбит/сек
Дата кодирования : UTC 2017-01-11 17:05:10
Программа кодирования : mkvmerge v8.2.0 ('World of Adventure') 64bit
Библиотека кодирования : libebml v1.3.1 + libmatroska v1.4.2
DURATION : 01:38:14.390000000
NUMBER_OF_FRAMES : 582
NUMBER_OF_BYTES : 39171
_STATISTICS_WRITING_APP : mkvmerge v8.2.0 ('World of Adventure') 64bit
_STATISTICS_WRITING_DATE_UTC : 2017-01-11 17:05:10
_STATISTICS_TAGS : BPS DURATION NUMBER_OF_FRAMES NUMBER_OF_BYTES

Видео
Идентификатор : 1
Формат : AVC
Формат/Информация : Advanced Video Codec
Профиль формата : High@L4.0
Параметр CABAC формата : Да
Параметр ReFrames формата : 4 кадра
Идентификатор кодека : V_MPEG4/ISO/AVC
Продолжительность : 1 ч. 38 м.
Вид битрейта : Переменный
Битрейт : 7833 Кбит/сек
Максимальный битрейт : 15,0 Мбит/сек
Ширина : 1920 пикселей
Высота : 1080 пикселей
Соотношение сторон : 16:9
Режим частоты кадров : Постоянный
Частота кадров : 23,976 кадра/сек
Цветовое пространство : YUV
Субдискретизация насыщенности : 4:2:0
Битовая глубина : 8 бит
Тип развёртки : Прогрессивная
Бит/(Пиксели*Кадры) : 0.158
Размер потока : 5,40 Гбайт (73%)
Библиотека кодирования : x264 core 148 r2623 d5b2374
Настройки программы : cabac=1 / ref=4 / deblock=1:-1:-1 / analyse=0x3:0x133 / me=umh / subme=9 / psy=1 / psy_rd=1.00:0.15 / mixed_ref=1 / me_range=24 / chroma_me=1 / trellis=2 / 8x8dct=1 / cqm=0 / deadzone=21,11 / fast_pskip=1 / chroma_qp_offset=-3 / threads=34 / lookahead_threads=5 / sliced_threads=0 / nr=150 / decimate=1 / interlaced=0 / bluray_compat=0 / constrained_intra=0 / bframes=8 / b_pyramid=2 / b_adapt=2 / b_bias=0 / direct=3 / weightb=1 / open_gop=0 / weightp=2 / keyint=120 / keyint_min=61 / scenecut=0 / intra_refresh=0 / rc_lookahead=120 / rc=crf / mbtree=1 / crf=18.0 / qcomp=0.60 / qpmin=0 / qpmax=69 / qpstep=4 / vbv_maxrate=15000 / vbv_bufsize=31250 / crf_max=0.0 / nal_hrd=vbr / filler=0 / ip_ratio=1.40 / aq=3:1.00
Default : Да
Forced : Нет
Основные цвета : BT.709
Характеристики трансфера : BT.709
Коэффициенты матрицы : BT.709

Аудио #1
Идентификатор : 2
Формат : AC-3
Формат/Информация : Audio Coding 3
Расширение режима : CM (complete main)
Параметр Endianness формата : Big
Идентификатор кодека : A_AC3
Продолжительность : 1 ч. 38 м.
Вид битрейта : Постоянный
Битрейт : 192 Кбит/сек
Каналы : 2 канала
Расположение каналов : Front: L R
Частота : 48,0 КГц
Битовая глубина : 16 бит
Метод сжатия : С потерями
Размер потока : 136 Мбайт (2%)
Заголовок : Професиональный (полное дублирование) - Пифагор
Язык : Russian
Default : Да
Forced : Нет

Аудио #2
Идентификатор : 3
Формат : AC-3
Формат/Информация : Audio Coding 3
Расширение режима : CM (complete main)
Параметр Endianness формата : Big
Идентификатор кодека : A_AC3
Продолжительность : 1 ч. 38 м.
Вид битрейта : Постоянный
Битрейт : 192 Кбит/сек
Каналы : 2 канала
Расположение каналов : Front: L R
Частота : 48,0 КГц
Битовая глубина : 16 бит
Метод сжатия : С потерями
Размер потока : 136 Мбайт (2%)
Заголовок : Професиональный (полное дублирование) Первый канал
Язык : Russian
Default : Нет
Forced : Нет

Аудио #3
Идентификатор : 4
Формат : AC-3
Формат/Информация : Audio Coding 3
Расширение режима : CM (complete main)
Параметр Endianness формата : Big
Идентификатор кодека : A_AC3
Продолжительность : 1 ч. 38 м.
Вид битрейта : Постоянный
Битрейт : 192 Кбит/сек
Каналы : 2 канала
Расположение каналов : Front: L R
Частота : 48,0 КГц
Битовая глубина : 16 бит
Метод сжатия : С потерями
Размер потока : 136 Мбайт (2%)
Заголовок : Профессиональный (многоголосый закадровый) - Премьер Мультимедиа
Язык : Russian
Default : Нет
Forced : Нет

Аудио #4
Идентификатор : 5
Формат : AC-3
Формат/Информация : Audio Coding 3
Расширение режима : CM (complete main)
Параметр Endianness формата : Big
Идентификатор кодека : A_AC3
Продолжительность : 1 ч. 38 м.
Вид битрейта : Постоянный
Битрейт : 448 Кбит/сек
Каналы : 6 каналов
Расположение каналов : Front: L C R, Side: L R, LFE
Частота : 48,0 КГц
Битовая глубина : 16 бит
Метод сжатия : С потерями
Размер потока : 316 Мбайт (4%)
Заголовок : Профессиональный (двухголосый закадровый)
Язык : Russian
Default : Нет
Forced : Нет

Аудио #5
Идентификатор : 6
Формат : AC-3
Формат/Информация : Audio Coding 3
Расширение режима : CM (complete main)
Параметр Endianness формата : Big
Идентификатор кодека : A_AC3
Продолжительность : 1 ч. 38 м.
Вид битрейта : Постоянный
Битрейт : 192 Кбит/сек
Каналы : 2 канала
Расположение каналов : Front: L R
Частота : 48,0 КГц
Битовая глубина : 16 бит
Метод сжатия : С потерями
Размер потока : 136 Мбайт (2%)
Заголовок : Профессиональный (двухголосый закадровый) - Людмила Ильина и Вадим Андреев
Язык : Russian
Default : Нет
Forced : Нет

Аудио #6
Идентификатор : 7
Формат : AC-3
Формат/Информация : Audio Coding 3
Расширение режима : CM (complete main)
Параметр Endianness формата : Big
Идентификатор кодека : A_AC3
Продолжительность : 1 ч. 38 м.
Вид битрейта : Постоянный
Битрейт : 448 Кбит/сек
Каналы : 6 каналов
Расположение каналов : Front: L C R, Side: L R, LFE
Частота : 48,0 КГц
Битовая глубина : 16 бит
Метод сжатия : С потерями
Размер потока : 316 Мбайт (4%)
Заголовок : Авторский (Одноголосый закадровый) - Сергей Визгунов
Язык : Russian
Default : Нет
Forced : Нет

Аудио #7
Идентификатор : 8
Формат : AC-3
Формат/Информация : Audio Coding 3
Расширение режима : CM (complete main)
Параметр Endianness формата : Big
Идентификатор кодека : A_AC3
Продолжительность : 1 ч. 38 м.
Вид битрейта : Постоянный
Битрейт : 192 Кбит/сек
Каналы : 1 канал
Расположение каналов : Front: C
Частота : 48,0 КГц
Битовая глубина : 16 бит
Метод сжатия : С потерями
Размер потока : 136 Мбайт (2%)
Заголовок : Авторский (Одноголосый закадровый) - Николай Антонов
Язык : Russian
Default : Нет
Forced : Нет

Аудио #8
Идентификатор : 9
Формат : AC-3
Формат/Информация : Audio Coding 3
Расширение режима : CM (complete main)
Параметр Endianness формата : Big
Идентификатор кодека : A_AC3
Продолжительность : 1 ч. 38 м.
Вид битрейта : Постоянный
Битрейт : 192 Кбит/сек
Каналы : 2 канала
Расположение каналов : Front: L R
Частота : 48,0 КГц
Битовая глубина : 16 бит
Метод сжатия : С потерями
Размер потока : 136 Мбайт (2%)
Заголовок : Профессиональный (двухголосый закадровый) - К1
Язык : Ukrainian
Default : Нет
Forced : Нет

Аудио #9
Идентификатор : 10
Формат : E-AC-3
Формат/Информация : Audio Coding 3
Параметр Endianness формата : Big
Идентификатор кодека : A_EAC3
Продолжительность : 1 ч. 38 м.
Вид битрейта : Постоянный
Битрейт : 640 Кбит/сек
Каналы : 6 каналов
Расположение каналов : Front: L C R, Side: L R, LFE
Частота : 48,0 КГц
Метод сжатия : С потерями
Размер потока : 452 Мбайт (6%)
Заголовок : Оригинал
Язык : English
Default : Нет
Forced : Нет

Текст #1
Идентификатор : 11
Формат : UTF-8
Идентификатор кодека : S_TEXT/UTF8
Идентификатор кодека/Информация : UTF-8 Plain Text
Язык : English
Default : Нет
Forced : Нет

Текст #2
Идентификатор : 12
Формат : UTF-8
Идентификатор кодека : S_TEXT/UTF8
Идентификатор кодека/Информация : UTF-8 Plain Text
Язык : Russian
Default : Нет
Forced : Нет
 
Не забывайте говорить Спасибо. Не уходите с раздачи!   
Торрент: Зарегистрирован [12 янв 2017, 00:48] Для скачивания .torrent
необходима регистрация
Или скачать с помощью
MediaGet
Статус:
Проверен
 
.torrent скачан: 152 раз
Хэш: 4d7bea68b45f001d1c4a48bcee760872c51da401
Размер: 7.4 ГБ (7 945 834 449 байт)
Стать Автором раздачи
 
 
Раздал: 100 ГБ
Скачал: 0 байт
Ратио: Seed.
Сообщения: 103447
Зарегистрирован: 09 апр 2015, 23:00


  • Похожие торренты
    Ответы
    Просмотры
    Последнее сообщение

Вернуться в Мультфильмы и мультсериалы

Кто сейчас на конференции

Сейчас эту тему просматривают: нет зарегистрированных пользователей и гости: 1

Ресурс не предоставляет электронные версии произведений, а занимается лишь коллекционированием и каталогизацией ссылок, присылаемых и публикуемых на форуме нашими читателями. Если вы являетесь правообладателем какого-либо представленного материала и не желаете чтобы ссылка на него находилась в нашем каталоге, свяжитесь с нами и мы незамедлительно удалим её. Файлы для обмена на трекере предоставлены пользователями сайта, и администрация не несёт ответственности за их содержание. Просьба не заливать файлы, защищенные авторскими правами, а также файлы нелегального содержания!