Puccini - Madama Butterfly / Пуччини - Мадам Баттерфляй (Alvis Hermanis, Riccardo Chailly, Alla Sigalova, Maria José Siri, Bryan Hymel, Teatro alla Scala Chorus and Orchestra) [2016, Opera, HDTV 1080i] Sub [Русские][Eng, Ger, Esp, Ita]

 
 Статистика раздачи 
Размер: 26.47 ГБ   |  Зарегистрирован: 12 янв 2017, 00:40   |   .torrent скачан: 3 раз
Сидеров: 9  [ 0 байт/сек ]     Личеров: 2  [ 0 байт/сек ]  
  

Puccini - Madama Butterfly / Пуччини - Мадам Баттерфляй (Alvis Hermanis, Riccardo Chailly, Alla Sigalova, Maria José Siri, Bryan Hymel, Teatro alla Scala Chorus and Orchestra) [2016, Opera, HDTV 1080i] Sub [Русские][Eng, Ger, Esp, Ita]

Сообщение aLaVodka » 12 янв 2017, 00:40

Puccini - Madama Butterfly / Пуччини - Мадам Баттерфляй

Год выпуска: 2016

Лейбл: RaiCultura - Rai1
Страна-производитель: Италия
Жанр: Opera
Продолжительность: 03:11:18
Язык: Итальянский
Перевод: есть
Субтитры: English, German, Spanish, Русские, Italian
Дирижер/Хореограф: Riccardo Chailly / Alla Sigalova
Режиссер: Alvis Hermanis
Исполнители:
Madama Butterfly(Cio-Cio-San) - Maria José Siri
Suzuki - Annalisa Stroppa
F.B. Pinkerton - Bryan Hymel
Sharpless - Carlos Álvarez
Goro - Carlo Bosi
Prince Yamadori - Costantino Finucci
The Bonze - Abramo Rosalen
Yakusidé - Leonardo Galeazzi
Imperial commissioner - Gabriele Sagona
The Official Registrar - Romano Dal Zovo
Cio-Cio San's mother - Marzia Castellini
Cio-Cio San's aunt - Maria Miccoli
Cio-Cio San's cousin - Roberta Salvati

Треклист:
1. Intro [00:03:37]
2. Part 1 [01:07:01]
3. Interview [00:13:29]
4. Part 2 [01:47:11]

Описание: Giacomo Puccini
Original version Milan 1904
Japanese tragedy in two acts
Libretto by Giuseppe Giacosa and Luigi Illica
(Reconstruction of the first version - 1904 - by Julian Smith, Casa Ricordi, Milan)
Teatro alla Scala Chorus and Orchestra
New Teatro alla Scala Production

Conductor - Riccardo Chailly
Staging - Alvis Hermanis
Sets - Alvis Hermanis and Leila Fteita
Costumes - Kristine Jurjāne
Lights - Gleb Filshtinsky
Videos - Ineta Sipunova
Choreography - Alla Sigalova
Dramaturgy - Olivier Lexa

Спасибо ginofamussa

Качество видео: HDTV 1080i
Формат/Контейнер: TS
Видео кодек: MPEG2
Аудио кодек: AC3
Видео поток: MPEG 2, 1920x1080 (16:9), 25.000 fps, 15.6 Mbps (18.4 Mbps - Intro)
Аудио поток: AC-3, 48.0 KHz, 6 ch, 448 Kbps
Субтитры: English, German, Spanish, Russian, Italian
Код: Выделить всё
General
ID                                       : 1 (0x1)
Complete name                            : N:\Madama Butterfly LA SCALA 12.07.2016 HDTV 1080i AC3 Multisubs\1 Intro.ts
Format                                   : MPEG-TS
File size                                : 512 MiB
Duration                                 : 3 min 36 s
Overall bit rate mode                    : Variable
Overall bit rate                         : 19.8 Mb/s
Network name                             : RAI
Original network name                    : Astra Satellite Network 19,2'E

Video
ID                                       : 308 (0x134)
Menu ID                                  : 1 (0x1)
Format                                   : MPEG Video
Format version                           : Version 2
Format profile                           : Main@High
Format settings, BVOP                    : Yes
Format settings, Matrix                  : Custom
Format settings, GOP                     : M=3, N=18
Format settings, picture structure       : Frame
Codec ID                                 : 2
Duration                                 : 3 min 35 s
Bit rate mode                            : Variable
Bit rate                                 : 18.4 Mb/s
Maximum bit rate                         : 15.6 Mb/s
Width                                    : 1 920 pixels
Height                                   : 1 080 pixels
Display aspect ratio                     : 16:9
Frame rate                               : 25.000 FPS
Color space                              : YUV
Chroma subsampling                       : 4:2:0
Bit depth                                : 8 bits
Scan type                                : Interlaced
Scan order                               : Top Field First
Compression mode                         : Lossy
Bits/(Pixel*Frame)                       : 0.354
Stream size                              : 473 MiB (92%)

Audio
ID                                       : 256 (0x100)
Menu ID                                  : 1 (0x1)
Format                                   : AC-3
Format/Info                              : Audio Coding 3
Mode extension                           : CM (complete main)
Format settings, Endianness              : Big
Codec ID                                 : 6
Duration                                 : 3 min 36 s
Bit rate mode                            : Constant
Bit rate                                 : 448 kb/s
Channel(s)                               : 6 channels
Channel positions                        : Front: L C R, Side: L R, LFE
Sampling rate                            : 48.0 kHz
Frame rate                               : 31.250 FPS (1536 spf)
Compression mode                         : Lossy
Delay relative to video                  : -328 ms
Stream size                              : 11.6 MiB (2%)
Language                                 : English

Text #1
ID                                       : 1024 (0x400)
Menu ID                                  : 1 (0x1)
Format                                   : DVB Subtitle
Codec ID                                 : 6
Language                                 : en3

Text #2
ID                                       : 1025 (0x401)
Menu ID                                  : 1 (0x1)
Format                                   : DVB Subtitle
Codec ID                                 : 6
Language                                 : ge3

Text #3
ID                                       : 1026 (0x402)
Menu ID                                  : 1 (0x1)
Format                                   : DVB Subtitle
Codec ID                                 : 6
Language                                 : sp3

Text #4
ID                                       : 1029 (0x405)
Menu ID                                  : 1 (0x1)
Format                                   : DVB Subtitle
Codec ID                                 : 6
Language                                 : ru3

Text #5
ID                                       : 1030 (0x406)
Menu ID                                  : 1 (0x1)
Format                                   : DVB Subtitle
Codec ID                                 : 6
Language                                 : English

Text #6
ID                                       : 1031 (0x407)
Menu ID                                  : 1 (0x1)
Format                                   : DVB Subtitle
Codec ID                                 : 6
Language                                 : German

Text #7
ID                                       : 1032 (0x408)
Menu ID                                  : 1 (0x1)
Format                                   : DVB Subtitle
Codec ID                                 : 6
Language                                 : Spanish

Text #8
ID                                       : 1035 (0x40B)
Menu ID                                  : 1 (0x1)
Format                                   : DVB Subtitle
Codec ID                                 : 6
Language                                 : Russian

Text #9
ID                                       : 1036 (0x40C)
Menu ID                                  : 1 (0x1)
Format                                   : DVB Subtitle
Codec ID                                 : 6
Language                                 : ge2

Menu
ID                                       : 616 (0x268)
Menu ID                                  : 1 (0x1)
Duration                                 : 3 min 36 s
List                                     : 308 (0x134) (MPEG Video) / 256 (0x100) (AC-3, English) / 1024 (0x400) (DVB Subtitle, en3) / 1025 (0x401) (DVB Subtitle, ge3) / 1026 (0x402) (DVB Subtitle, sp3) / 1029 (0x405) (DVB Subtitle, ru3) / 1030 (0x406) (DVB Subtitle, English) / 1031 (0x407) (DVB Subtitle, German) / 1032 (0x408) (DVB Subtitle, Spanish) / 1035 (0x40B) (DVB Subtitle, Russian) / 1036 (0x40C) (DVB Subtitle, ge2)
Language                                 :  / English / en3 / ge3 / sp3 / ru3 / English / German / Spanish / Russian / ge2
Service name                             : Service 1 A
Service provider                         : RAI Radio Televisione Italiana
Service type                             : digital television
Maximum bit rate                         : 200000000
Код: Выделить всё
General
ID                                       : 1 (0x1)
Complete name                            : N:\Madama Butterfly LA SCALA 12.07.2016 HDTV 1080i AC3 Multisubs\2 Part I.ts
Format                                   : MPEG-TS
File size                                : 9.27 GiB
Duration                                 : 1 h 18 min
Overall bit rate mode                    : Variable
Overall bit rate                         : 17.0 Mb/s
Network name                             : RAI
Original network name                    : Astra Satellite Network 19,2'E

Video
ID                                       : 308 (0x134)
Menu ID                                  : 1 (0x1)
Format                                   : MPEG Video
Format version                           : Version 2
Format profile                           : Main@High
Format settings, BVOP                    : Yes
Format settings, Matrix                  : Default
Format settings, GOP                     : M=3, N=18
Format settings, picture structure       : Frame
Codec ID                                 : 2
Duration                                 : 1 h 7 min
Bit rate mode                            : Variable
Bit rate                                 : 15.6 Mb/s
Width                                    : 1 920 pixels
Height                                   : 1 080 pixels
Display aspect ratio                     : 16:9
Frame rate                               : 25.000 FPS
Color space                              : YUV
Chroma subsampling                       : 4:2:0
Bit depth                                : 8 bits
Scan type                                : Interlaced
Scan order                               : Top Field First
Compression mode                         : Lossy
Bits/(Pixel*Frame)                       : 0.302
Stream size                              : 7.35 GiB (79%)

Audio
ID                                       : 256 (0x100)
Menu ID                                  : 1 (0x1)
Format                                   : AC-3
Format/Info                              : Audio Coding 3
Mode extension                           : CM (complete main)
Format settings, Endianness              : Big
Codec ID                                 : 6
Duration                                 : 1 h 7 min
Bit rate mode                            : Constant
Bit rate                                 : 448 kb/s
Channel(s)                               : 6 channels
Channel positions                        : Front: L C R, Side: L R, LFE
Sampling rate                            : 48.0 kHz
Frame rate                               : 31.250 FPS (1536 spf)
Compression mode                         : Lossy
Delay relative to video                  : -64 ms
Stream size                              : 215 MiB (2%)
Language                                 : English

Menu
ID                                       : 616 (0x268)
Menu ID                                  : 1 (0x1)
Duration                                 : 1 h 18 min
List                                     : 308 (0x134) (MPEG Video) / 256 (0x100) (AC-3, English)
Language                                 :  / English
Service name                             : Service 1 A
Service provider                         : RAI Radio Televisione Italiana
Service type                             : digital television
Maximum bit rate                         : 200000000
Код: Выделить всё
General
ID                                       : 1 (0x1)
Complete name                            : N:\Madama Butterfly LA SCALA 12.07.2016 HDTV 1080i AC3 Multisubs\3 Interviews.ts
Format                                   : MPEG-TS
File size                                : 1.86 GiB
Duration                                 : 15 min 41 s
Overall bit rate mode                    : Variable
Overall bit rate                         : 17.0 Mb/s
Network name                             : RAI
Original network name                    : Astra Satellite Network 19,2'E

Video
ID                                       : 308 (0x134)
Menu ID                                  : 1 (0x1)
Format                                   : MPEG Video
Format version                           : Version 2
Format profile                           : Main@High
Format settings, BVOP                    : Yes
Format settings, Matrix                  : Default
Format settings, GOP                     : M=3, N=18
Format settings, picture structure       : Frame
Codec ID                                 : 2
Duration                                 : 13 min 28 s
Bit rate mode                            : Variable
Bit rate                                 : 15.6 Mb/s
Width                                    : 1 920 pixels
Height                                   : 1 080 pixels
Display aspect ratio                     : 16:9
Frame rate                               : 25.000 FPS
Color space                              : YUV
Chroma subsampling                       : 4:2:0
Bit depth                                : 8 bits
Scan type                                : Interlaced
Scan order                               : Top Field First
Compression mode                         : Lossy
Bits/(Pixel*Frame)                       : 0.302
Stream size                              : 1.48 GiB (79%)

Audio
ID                                       : 256 (0x100)
Menu ID                                  : 1 (0x1)
Format                                   : AC-3
Format/Info                              : Audio Coding 3
Mode extension                           : CM (complete main)
Format settings, Endianness              : Big
Codec ID                                 : 6
Duration                                 : 13 min 29 s
Bit rate mode                            : Constant
Bit rate                                 : 448 kb/s
Channel(s)                               : 6 channels
Channel positions                        : Front: L C R, Side: L R, LFE
Sampling rate                            : 48.0 kHz
Frame rate                               : 31.250 FPS (1536 spf)
Compression mode                         : Lossy
Delay relative to video                  : -56 ms
Stream size                              : 43.2 MiB (2%)
Language                                 : English

Text #1
ID                                       : 1024 (0x400)
Menu ID                                  : 1 (0x1)
Format                                   : DVB Subtitle
Codec ID                                 : 6
Language                                 : en3

Text #2
ID                                       : 1025 (0x401)
Menu ID                                  : 1 (0x1)
Format                                   : DVB Subtitle
Codec ID                                 : 6
Language                                 : ge3

Text #3
ID                                       : 1026 (0x402)
Menu ID                                  : 1 (0x1)
Format                                   : DVB Subtitle
Codec ID                                 : 6
Language                                 : sp3

Text #4
ID                                       : 1027 (0x403)
Menu ID                                  : 1 (0x1)
Format                                   : DVB Subtitle
Codec ID                                 : 6
Language                                 : it3

Text #5
ID                                       : 1029 (0x405)
Menu ID                                  : 1 (0x1)
Format                                   : DVB Subtitle
Codec ID                                 : 6
Language                                 : ru3

Text #6
ID                                       : 1030 (0x406)
Menu ID                                  : 1 (0x1)
Format                                   : DVB Subtitle
Codec ID                                 : 6
Language                                 : English

Text #7
ID                                       : 1031 (0x407)
Menu ID                                  : 1 (0x1)
Format                                   : DVB Subtitle
Codec ID                                 : 6
Language                                 : German

Text #8
ID                                       : 1032 (0x408)
Menu ID                                  : 1 (0x1)
Format                                   : DVB Subtitle
Codec ID                                 : 6
Language                                 : Spanish

Text #9
ID                                       : 1033 (0x409)
Menu ID                                  : 1 (0x1)
Format                                   : DVB Subtitle
Codec ID                                 : 6
Language                                 : Italian

Text #10
ID                                       : 1035 (0x40B)
Menu ID                                  : 1 (0x1)
Format                                   : DVB Subtitle
Codec ID                                 : 6
Language                                 : Russian

Text #11
ID                                       : 1036 (0x40C)
Menu ID                                  : 1 (0x1)
Format                                   : DVB Subtitle
Codec ID                                 : 6
Language                                 : ge2

Menu
ID                                       : 616 (0x268)
Menu ID                                  : 1 (0x1)
Duration                                 : 15 min 41 s
List                                     : 308 (0x134) (MPEG Video) / 256 (0x100) (AC-3, English) / 1024 (0x400) (DVB Subtitle, en3) / 1025 (0x401) (DVB Subtitle, ge3) / 1026 (0x402) (DVB Subtitle, sp3) / 1027 (0x403) (DVB Subtitle, it3) / 1029 (0x405) (DVB Subtitle, ru3) / 1030 (0x406) (DVB Subtitle, English) / 1031 (0x407) (DVB Subtitle, German) / 1032 (0x408) (DVB Subtitle, Spanish) / 1033 (0x409) (DVB Subtitle, Italian) / 1035 (0x40B) (DVB Subtitle, Russian) / 1036 (0x40C) (DVB Subtitle, ge2)
Language                                 :  / English / en3 / ge3 / sp3 / it3 / ru3 / English / German / Spanish / Italian / Russian / ge2
Service name                             : Service 1 A
Service provider                         : RAI Radio Televisione Italiana
Service type                             : digital television
Maximum bit rate                         : 200000000
Код: Выделить всё
General
ID                                       : 1 (0x1)
Complete name                            : N:\Madama Butterfly LA SCALA 12.07.2016 HDTV 1080i AC3 Multisubs\4 Part II.ts
Format                                   : MPEG-TS
File size                                : 14.8 GiB
Duration                                 : 2 h 4 min
Overall bit rate mode                    : Variable
Overall bit rate                         : 17.0 Mb/s
Network name                             : RAI
Original network name                    : Astra Satellite Network 19,2'E

Video
ID                                       : 308 (0x134)
Menu ID                                  : 1 (0x1)
Format                                   : MPEG Video
Format version                           : Version 2
Format profile                           : Main@High
Format settings, BVOP                    : Yes
Format settings, Matrix                  : Default
Format settings, GOP                     : M=3, N=18
Format settings, picture structure       : Frame
Codec ID                                 : 2
Duration                                 : 1 h 47 min
Bit rate mode                            : Variable
Bit rate                                 : 15.6 Mb/s
Width                                    : 1 920 pixels
Height                                   : 1 080 pixels
Display aspect ratio                     : 16:9
Frame rate                               : 25.000 FPS
Color space                              : YUV
Chroma subsampling                       : 4:2:0
Bit depth                                : 8 bits
Scan type                                : Interlaced
Scan order                               : Top Field First
Compression mode                         : Lossy
Bits/(Pixel*Frame)                       : 0.302
Stream size                              : 11.8 GiB (79%)

Audio
ID                                       : 256 (0x100)
Menu ID                                  : 1 (0x1)
Format                                   : AC-3
Format/Info                              : Audio Coding 3
Mode extension                           : CM (complete main)
Format settings, Endianness              : Big
Codec ID                                 : 6
Duration                                 : 1 h 47 min
Bit rate mode                            : Constant
Bit rate                                 : 448 kb/s
Channel(s)                               : 6 channels
Channel positions                        : Front: L C R, Side: L R, LFE
Sampling rate                            : 48.0 kHz
Frame rate                               : 31.250 FPS (1536 spf)
Compression mode                         : Lossy
Delay relative to video                  : 64 ms
Stream size                              : 343 MiB (2%)
Language                                 : English

Menu
ID                                       : 616 (0x268)
Menu ID                                  : 1 (0x1)
Duration                                 : 2 h 4 min
List                                     : 308 (0x134) (MPEG Video) / 256 (0x100) (AC-3, English)
Language                                 :  / English
Service name                             : Service 1 A
Service provider                         : RAI Radio Televisione Italiana
Service type                             : digital television
Maximum bit rate                         : 200000000









 
Не забывайте говорить Спасибо. Не уходите с раздачи!   
Торрент: Зарегистрирован [12 янв 2017, 00:40] Для скачивания .torrent
необходима регистрация
Или скачать с помощью
MediaGet
Статус:
Проверен
 
.torrent скачан: 3 раз
Хэш: 4a42af7932d137eaa2aff3dffdaebfd703576889
Размер: 26.47 ГБ (28 417 379 891 байт)
Стать Автором раздачи
 
 
Раздал: 100 ГБ
Скачал: 0 байт
Ратио: Seed.
Сообщения: 183248
Зарегистрирован: 09 апр 2015, 20:00


  • Похожие торренты
    Ответы
    Просмотры
    Последнее сообщение

Вернуться в Опера (DVD и HD Видео)

Кто сейчас на конференции

Сейчас эту тему просматривают: нет зарегистрированных пользователей и гости: 1

Ресурс не предоставляет электронные версии произведений, а занимается лишь коллекционированием и каталогизацией ссылок, присылаемых и публикуемых на форуме нашими читателями. Если вы являетесь правообладателем какого-либо представленного материала и не желаете чтобы ссылка на него находилась в нашем каталоге, свяжитесь с нами и мы незамедлительно удалим её. Файлы для обмена на трекере предоставлены пользователями сайта, и администрация не несёт ответственности за их содержание. Просьба не заливать файлы, защищенные авторскими правами, а также файлы нелегального содержания!