Sony 4K Generator Demos (2016) DCPRip HEVC 2160p

Видеокурс, клипарт, любительское видео, обои, обучающие видео, фотографии
 
 Статистика раздачи 
Размер: 5.37 ГБ   |  Зарегистрирован: 12 янв 2017, 00:25   |   .torrent скачан: 909 раз
Сидеров: 21  [ 0 байт/сек ]     Личеров: 2  [ 0 байт/сек ]  
  

Sony 4K Generator Demos (2016) DCPRip HEVC 2160p

Сообщение Ressler » 12 янв 2017, 00:25



Оригинальное название: Sony 4K Generator Demos


Год выпуска: 2015
Жанр: демо
Продолжительность: 00:03:30 | 00:03:11 | 00:00:36 | 00:01:44 | 00:03:43 | 00:02:02 | 00:03:43 | 00:01:32 | 00:02:23 | 00:01:06 | 00:02:27 | 00:01:43 |


Описание: After Earth Trailer (2:30)
Another World (3:11)
Baby (0:36)
Beautiful Sea (1:44)
Bellagio (3:43)
Feel The Beauty 2013 (2:02)
FIFA Club World Cup Japan 2012 (3:43)
Greenkeeper (1.32)
The World Heritage Kyoto (2:23)
Total Recall Scene (1:07)
Triluminos Demo (2:27)
What's 4K (1:43)


Качество: DCPRip 2160p
Формат: MKV
Видео кодек: x265
Аудио кодек: AAC
Видео: 3840x2160, 23,976 fps, HEVC, ~7-48 Mbps
Аудио: Eng, 48 kHz/16-bit, AAC 2.0, ~128 kbps | Оригинал
Навигация по главам: Отсутствует


Автор рипа: Alex_A







- H.265/HEVC (High Efficiency Video Coding) - это новый стандарт кодирования видео.
- Стандарт H.265/HEVC является логическим продолжением стандарта H.264/AVC (Advanced Video Coding), и характеризуется более эффективными алгоритмами сжатия, а также поддержкой высокого разрешения вплоть до 8K UHD (8192x4320). Первая версия стандарта H.265 была опубликована в начале 2013 года.
- Рипы в фомате HEVC, в настоящее время не поддерживается большинством аппаратных проигрывателей.
- Для корректного воспроизведения может потребоваться обновление ПО.
- Владельцам несовместимого железа просьба не беспокоить, есть альтернативные релизы.

Общее
Уникальный идентификатор : 227947835418723193014680562859188914910 (0xAB7D27FCAA54303F92FBD31DCE5F8ADE)
Полное имя : e:HEVCSony 4K Generator Demos (2015) HEVCCLUBAfter.Earth.Trailer_HEVCCLUB.mkv
Формат : Matroska
Версия формата : Version 4 / Version 2
Размер файла : 390 Мбайт
Продолжительность : 2 м. 30 с.
Общий поток : 21,8 Мбит/сек
Дата кодирования : UTC 2017-01-07 10:05:52
Программа кодирования : mkvmerge v9.6.0 ('Slave To Your Mind') 64bit
Библиотека кодирования : libebml v1.3.4 + libmatroska v1.4.5
Encoding Gui : Hybrid 2016.12.23.1

Видео
Идентификатор : 1
Формат : HEVC
Формат/Информация : High Efficiency Video Coding
Профиль формата : Main@L5.1@High
Идентификатор кодека : V_MPEGH/ISO/HEVC
Продолжительность : 2 м. 30 с.
Битрейт : 21,6 Мбит/сек
Ширина : 3840 пикселей
Высота : 2160 пикселей
Соотношение сторон : 16:9
Режим частоты кадров : Постоянный
Частота кадров : 23,976 (24000/1001) кадра/сек
Цветовое пространство : YUV
Субдискретизация насыщенности : 4:2:0
Битовая глубина : 8 бит
Бит/(Пиксели*Кадры) : 0.109
Размер потока : 388 Мбайт (99%)
Библиотека кодирования : x265 2.1+74-e5759d587ae2:[Windows][GCC 6.2.0][64 bit] 8bit+10bit+12bit
Настройки программы : cpuid=1173503 / frame-threads=3 / numa-pools=8 / wpp / no-pmode / no-pme / no-psnr / ssim / log-level=2 / input-csp=1 / input-res=3840x2160 / interlace=0 / total-frames=0 / level-idc=51 / high-tier=1 / uhd-bd=0 / ref=5 / no-allow-non-conformance / repeat-headers / annexb / aud / hrd / info / hash=0 / no-temporal-layers / open-gop / min-keyint=23 / keyint=250 / bframes=8 / b-adapt=2 / b-pyramid / bframe-bias=0 / rc-lookahead=60 / lookahead-slices=1 / scenecut=40 / no-intra-refresh / ctu=32 / min-cu-size=8 / no-rect / no-amp / max-tu-size=32 / tu-inter-depth=2 / tu-intra-depth=2 / limit-tu=0 / rdoq-level=1 / signhide / no-tskip / nr-intra=0 / nr-inter=0 / no-constrained-intra / no-strong-intra-smoothing / max-merge=2 / limit-refs=3 / no-limit-modes / me=2 / subme=5 / merange=60 / temporal-mvp / weightp / weightb / no-analyze-src-pics / deblock=-3:-3 / no-sao / no-sao-non-deblock / rd=4 / no-early-skip / no-rskip / no-fast-intra / no-tskip-fast / no-cu-lossless / no-b-intra / rdpenalty=0 / psy-rd=2.00 / psy-rdoq=3.00 / no-rd-refine / analysis-mode=0 / no-lossless / cbqpoffs=0 / crqpoffs=0 / rc=crf / crf=22.0 / qcomp=0.80 / qpstep=6 / stats-write=0 / stats-read=0 / vbv-maxrate=160000 / vbv-bufsize=160000 / vbv-init=0.9 / crf-max=0.0 / crf-min=0.0 / ipratio=1.50 / pbratio=1.10 / aq-mode=1 / aq-strength=0.50 / no-cutree / zone-count=0 / no-strict-cbr / qg-size=32 / no-rc-grain / qpmax=69 / qpmin=0 / sar=1 / overscan=0 / videoformat=5 / range=0 / colorprim=2 / transfer=2 / colormatrix=1 / chromaloc=0 / display-window=0 / max-cll=0,0 / min-luma=0 / max-luma=255 / log2-max-poc-lsb=8 / vui-timing-info / vui-hrd-info / slices=1 / opt-qp-pps / opt-ref-list-length-pps / no-multi-pass-opt-rps / scenecut-bias=0.05
Язык : English
Default : Да
Forced : Да
Цветовой диапазон : Limited
Коэффициенты матрицы : BT.709

Аудио
Идентификатор : 2
Формат : AAC
Формат/Информация : Advanced Audio Codec
Профиль формата : LC
Идентификатор кодека : A_AAC
Продолжительность : 2 м. 30 с.
Битрейт : 128 Кбит/сек
Каналы : 2 канала
Расположение каналов : Front: L R
Частота : 48,0 КГц
Частота кадров : 46,875 кадров/сек (1024 spf)
Метод сжатия : С потерями
Размер потока : 2,29 Мбайт (1%)
Язык : English
Default : Да
Forced : Нет



 
Не забывайте говорить Спасибо. Не уходите с раздачи!   
Торрент: Зарегистрирован [12 янв 2017, 00:25] Для скачивания .torrent
необходима регистрация
Или скачать с помощью
MediaGet
Статус:
Проверен
 
.torrent скачан: 909 раз
Хэш: 4fd0bee2183198b99555495fc2a444add53febee
Размер: 5.37 ГБ (5 763 808 064 байт)
Стать Автором раздачи
 
 
Раздал: 100 ГБ
Скачал: 0 байт
Ратио: Seed.
Сообщения: 29055
Зарегистрирован: 09 апр 2015, 23:02


  • Похожие торренты
    Ответы
    Просмотры
    Последнее сообщение

Вернуться в Другое

Кто сейчас на конференции

Сейчас эту тему просматривают: нет зарегистрированных пользователей и гости: 1

Ресурс не предоставляет электронные версии произведений, а занимается лишь коллекционированием и каталогизацией ссылок, присылаемых и публикуемых на форуме нашими читателями. Если вы являетесь правообладателем какого-либо представленного материала и не желаете чтобы ссылка на него находилась в нашем каталоге, свяжитесь с нами и мы незамедлительно удалим её. Файлы для обмена на трекере предоставлены пользователями сайта, и администрация не несёт ответственности за их содержание. Просьба не заливать файлы, защищенные авторскими правами, а также файлы нелегального содержания!