Настоящий суперкар / Supercar megabuild (5 выпускoв) (Matt Bullen/Матт Буллен) [2015, Документальный цикл, HDTV 1080i, RU, EN]

 
 Статистика раздачи 
Размер: 14.14 ГБ   |  Зарегистрирован: 12 янв 2017, 00:06   |   .torrent скачан: 0 раз
Сидеров: 1  [ 0 байт/сек ]     Личеров: 0  [ 0 байт/сек ]  
  

Настоящий суперкар / Supercar megabuild (5 выпускoв) (Matt Bullen/Матт Буллен) [2015, Документальный цикл, HDTV 1080i, RU, EN]

Сообщение aLaVodka » 12 янв 2017, 00:06

Настоящий суперкар / Supercar megabuild

Год выпуска: 2015
Страна: США
Студия: NGC Network Int
Жанр: Документальный цикл
Продолжительность: 00.44:06
Перевод: Студийный (одноголосый закадровый)
Доп. инфо о переводе: Велес
Русские субтитры: нет

Режиссер: Matt Bullen/Матт Буллен

Описание:
Афзал Кан построил впечатляющий международный бизнес по рестайлингу машин, т.е. он заставляет их выглядеть блестяще. Механики Ральф и Ранен создали экспериментальную мастерскую. В каждой серии вас ожидают различные тест-драйвы, работа над машинами и поиск ответа на главный вопрос - будет ли законченная машина достойна показа в шоуруме перфекциониста Афзала Кана?

11.01.2017 _ добавил: Audi A8,
перезаливаем
Audi A8
Chevrolet Camaro
Jeep Wrangler
Mercedes G-Wagen
Nissan GT-R
Сэмпл: http://multi-up.com/1130965

Тип релиза: HDTV 1080i
Контейнер: TS

Видео: AVC, 1920x1080, (16:9), 25 fps, 8.6 Mbps, 0.17 bit/pixel
Аудио#1: Russian, AC3, 48 kHz, 2 ch; 192 kbps
Аудио#2: English, AC3, 48 kHz, 2 ch; 192 kbps
Код: Выделить всё
General
ID                                       : 1 (0x1)
Complete name                            : C:\Настоящий суперкар\Mercedes G-Wagen.ts
Format                                   : MPEG-TS
File size                                : 2.93 GiB
Duration                                 : 44 min 6 s
Overall bit rate mode                    : Variable
Overall bit rate                         : 9 500 kb/s

Video
ID                                       : 302 (0x12E)
Menu ID                                  : 26002 (0x6592)
Format                                   : AVC
Format/Info                              : Advanced Video Codec
Format profile                           : High@L4
Format settings, CABAC                   : Yes
Format settings, ReFrames                : 4 frames
Codec ID                                 : 27
Duration                                 : 44 min 9 s
Bit rate                                 : 8 643 kb/s
Width                                    : 1 920 pixels
Height                                   : 1 080 pixels
Display aspect ratio                     : 16:9
Frame rate                               : 25.000 FPS
Standard                                 : Component
Color space                              : YUV
Chroma subsampling                       : 4:2:0
Bit depth                                : 8 bits
Scan type                                : Interlaced
Scan type, store method                  : Separated fields
Scan order                               : Top Field First
Bits/(Pixel*Frame)                       : 0.167
Stream size                              : 2.67 GiB (91%)
Color range                              : Limited
Color primaries                          : BT.709
Transfer characteristics                 : BT.709
Matrix coefficients                      : BT.709

Audio #1
ID                                       : 402 (0x192)
Menu ID                                  : 26002 (0x6592)
Format                                   : AC-3
Format/Info                              : Audio Coding 3
Mode extension                           : CM (complete main)
Format settings, Endianness              : Big
Codec ID                                 : 6
Duration                                 : 44 min 9 s
Bit rate mode                            : Constant
Bit rate                                 : 192 kb/s
Channel(s)                               : 2 channels
Channel positions                        : Front: L R
Sampling rate                            : 48.0 kHz
Frame rate                               : 31.250 FPS (1536 spf)
Bit depth                                : 16 bits
Compression mode                         : Lossy
Delay relative to video                  : -120 ms
Stream size                              : 60.6 MiB (2%)
Language                                 : Russian

Audio #2
ID                                       : 422 (0x1A6)
Menu ID                                  : 26002 (0x6592)
Format                                   : AC-3
Format/Info                              : Audio Coding 3
Mode extension                           : CM (complete main)
Format settings, Endianness              : Big
Codec ID                                 : 6
Duration                                 : 44 min 9 s
Bit rate mode                            : Constant
Bit rate                                 : 192 kb/s
Channel(s)                               : 2 channels
Channel positions                        : Front: L R
Sampling rate                            : 48.0 kHz
Frame rate                               : 31.250 FPS (1536 spf)
Bit depth                                : 16 bits
Compression mode                         : Lossy
Delay relative to video                  : -120 ms
Stream size                              : 60.6 MiB (2%)
Language                                 : English
 
Не забывайте говорить Спасибо. Не уходите с раздачи!   
Торрент: Зарегистрирован [12 янв 2017, 00:06] Для скачивания .torrent
необходима регистрация
Или скачать с помощью
MediaGet
Статус:
Проверен
 
.torrent скачан: 0 раз
Хэш: 4cd4be8f7ff5bed79f27680befdb4b4ab8f18d45
Размер: 14.14 ГБ (15 183 402 828 байт)
Стать Автором раздачи
 
 
Раздал: 100 ГБ
Скачал: 0 байт
Ратио: Seed.
Сообщения: 186564
Зарегистрирован: 09 апр 2015, 20:00


  • Похожие торренты
    Ответы
    Просмотры
    Последнее сообщение

Вернуться в BBC, Discovery, National Geographic (HD Video)

Кто сейчас на конференции

Сейчас эту тему просматривают: нет зарегистрированных пользователей и гости: 1

Ресурс не предоставляет электронные версии произведений, а занимается лишь коллекционированием и каталогизацией ссылок, присылаемых и публикуемых на форуме нашими читателями. Если вы являетесь правообладателем какого-либо представленного материала и не желаете чтобы ссылка на него находилась в нашем каталоге, свяжитесь с нами и мы незамедлительно удалим её. Файлы для обмена на трекере предоставлены пользователями сайта, и администрация не несёт ответственности за их содержание. Просьба не заливать файлы, защищенные авторскими правами, а также файлы нелегального содержания!