Плачь! Молись! Кричи! / Помогите / Help (Раджив Вирани / Rajeev Virani) [2010, Индия, Ужасы, триллер, драма, DVDRip] MVO (Red Media)

 
 Статистика раздачи 
Размер: 1.44 ГБ   |  Зарегистрирован: 11 янв 2017, 23:51   |   .torrent скачан: 108 раз
Сидеров: 6  [ 0 байт/сек ]     Личеров: 1  [ 0 байт/сек ]  
  

Плачь! Молись! Кричи! / Помогите / Help (Раджив Вирани / Rajeev Virani) [2010, Индия, Ужасы, триллер, драма, DVDRip] MVO (Red Media)

Сообщение aLaVodka » 11 янв 2017, 23:51

Плачь! Молись! Кричи! / Помогите / Help

Страна: Индия
Жанр: Ужасы, триллер, драма
Год выпуска: 2010
Продолжительность: 02:00:53

Перевод: Профессиональный (многоголосый закадровый) Red Media
Cубтитры: нет
Режиссер: Раджив Вирани / Rajeev Virani

В ролях: Бобби Деол, Мугдха Годсе, Шреяс Талпаде, Софи Ханда, Линда Арсенио, Маной Чатурведи, Датта Дэйв, Джоти Догра, Салим Фатехи, Симран Капур

Описание: Вик, успешный режиссер фильмов ужасов в Болливуде, женат на Пие. Они переживают семейный кризис. Внезапно, у Пии заболевает отец, и они едут на Маврикий, чтобы его навестить. Вернувшись в старый фамильный дом, Пия вновь сталкивается со своим далеким прошлым, с которым, казалось, давно было покончено...

Доп. информация: Исходник: DVD-9 R5

Сэмпл: http://multi-up.com/1135266

Качество видео: DVDRip
Формат видео: AVI

Видео: XviD build 50, 704x304 (2.32:1), 25 fps, 1271 kbps avg
Аудио: AC3 Dolby Digital, 48 kHz, 3/2 (L,C,R,l,r) + LFE ch, 448.00 kbps
General
Complete name : F:\Plach.Molis.Krichi.2010.DVDRip-Dego.avi
Format : AVI
Format/Info : Audio Video Interleave
File size : 1.44 GiB
Duration : 2h 0mn
Overall bit rate : 1 706 Kbps
Writing application : VirtualDubMod 1.5.10.2 (build 2540/release)
Writing library : VirtualDubMod build 2540/release

Video
ID : 0
Format : MPEG-4 Visual
Format profile : [email protected]
Format settings, BVOP : Yes
Format settings, QPel : No
Format settings, GMC : No warppoints
Format settings, Matrix : Custom
Codec ID : XVID
Codec ID/Hint : XviD
Duration : 2h 0mn
Bit rate : 1 272 Kbps
Width : 704 pixels
Height : 304 pixels
Display aspect ratio : 2.35
Frame rate : 25.000 fps
Resolution : 24 bits
Colorimetry : 4:2:0
Scan type : Progressive
Bits/(Pixel*Frame) : 0.238
Stream size : 1.07 GiB (75%)
Writing library : XviD 1.2.1 (UTC 2008-12-04)

Audio
ID : 1
Format : AC-3
Format/Info : Audio Coding 3
Codec ID : 2000
Duration : 1h 54mn
Bit rate mode : Constant
Bit rate : 448 Kbps
Channel(s) : 6 channels
Channel positions : Front: L C R, Surround: L R, LFE
Sampling rate : 48.0 KHz
Stream size : 367 MiB (25%)
Alignment : Split accross interleaves
Interleave, duration : 42 ms (1.05 video frame)
Interleave, preload duration : 500 ms
 
Не забывайте говорить Спасибо. Не уходите с раздачи!   
Торрент: Зарегистрирован [11 янв 2017, 23:51] Для скачивания .torrent
необходима регистрация
Или скачать с помощью
MediaGet
Статус:
Проверен
 
.torrent скачан: 108 раз
Хэш: 6fe41b31b1d76166716ad03792f66a42605b34bf
Размер: 1.44 ГБ (1 546 893 312 байт)
Стать Автором раздачи
 
 
Раздал: 100 ГБ
Скачал: 0 байт
Ратио: Seed.
Сообщения: 182341
Зарегистрирован: 09 апр 2015, 20:00


  • Похожие торренты
    Ответы
    Просмотры
    Последнее сообщение

Вернуться в Зарубежные фильмы 2006-2010 года

Кто сейчас на конференции

Сейчас эту тему просматривают: нет зарегистрированных пользователей и гости: 1

Ресурс не предоставляет электронные версии произведений, а занимается лишь коллекционированием и каталогизацией ссылок, присылаемых и публикуемых на форуме нашими читателями. Если вы являетесь правообладателем какого-либо представленного материала и не желаете чтобы ссылка на него находилась в нашем каталоге, свяжитесь с нами и мы незамедлительно удалим её. Файлы для обмена на трекере предоставлены пользователями сайта, и администрация не несёт ответственности за их содержание. Просьба не заливать файлы, защищенные авторскими правами, а также файлы нелегального содержания!