Клад / Дыры / Holes (Эндрю Дэвис / Andrew Davis) [2003, США, комедия, приключения, семейный, WEB-DL 1080p] Dub (Невафильм) + DVO + Sub Rus, Eng + Original Eng

 
 Статистика раздачи 
Размер: 11.22 ГБ   |  Зарегистрирован: 11 янв 2017, 22:17   |   .torrent скачан: 1 раз
Сидеров: 21  [ 0 байт/сек ]     Личеров: 6  [ 0 байт/сек ]  
  

Клад / Дыры / Holes (Эндрю Дэвис / Andrew Davis) [2003, США, комедия, приключения, семейный, WEB-DL 1080p] Dub (Невафильм) + DVO + Sub Rus, Eng + Original Eng

Сообщение aLaVodka » 11 янв 2017, 22:17

11.01.17 раздача обновлена, WEB-DL заменён на более качественный.

Клад / Дыры / Holes

Страна: США
Жанр: комедия, приключения, семейный
Год выпуска: 2003
Продолжительность: 01:57:25

Перевод 1: Профессиональный (дублированный) Невафильм
Перевод 2: Профессиональный (двухголосый закадровый)
Cубтитры: русские, английские
Оригинальная аудиодорожка: английский

Режиссер: Эндрю Дэвис / Andrew Davis

В ролях: Сигурни Уивер, Джон Войт, Тим Блейк Нельсон, Шайа ЛаБаф, Джэйк М. Смит, Байрон Коттон, Хлео Томас, Бренден Джеффресон, Мигель Кастро, Макс Кэш...

Описание: На семье подростка по имени Стенли Илнетс лежит древнее проклятие. Все его предки по мужской линии были обречены попадать в самые невероятные жизненные переделки. Вот и Стенли получает срок в исправительном трудовом лагере «Зелёное озеро» за преступление, которое он не совершал. Администрация лагеря в лице хищной начальницы и жестокого старшего надзирателя заставляет своих подопечных ежедневно копать в пустыне странные ямы, называя это «трудовой терапией». Никто из этих ребят не знает, зачем на самом деле они роют все эти ямы…

Сэмпл: http://sendfile.su/1298308

Тип релиза: WEB-DL 1080p
Контейнер: MKV

Видео: 1920x1040 (1.85:1) @ 1924x1040, 23.976 fps, AVC, ~11.8 Mbps, 0.247 bits/pixel
Аудио 1: Russian, 48.0 KHz, AC3, 6 ch, 448 Kbps - Невафильм
Аудио 2: Russian, 48.0 KHz, AC3, 6 ch, 448 Kbps
Аудио 3: English, 48.0 KHz, AC3, 6 ch, 448 Kbps
Аудио 4: English, 48.0 KHz, AC3+, 2 ch, 224 Kbps - WEB-DL

General
Unique ID : 240765399914352848427543344652623183013 (0xB521BAB5284910E8AD1F525C48027CA5)
Complete name : D:\Holes. WEB-DL 1080p.mkv
Format : Matroska
Format version : Version 4 / Version 2
File size : 11.2 GiB
Duration : 1h 57mn
Overall bit rate mode : Variable
Overall bit rate : 13.7 Mbps
Encoded date : UTC 2017-01-11 18:39:57
Writing application : mkvmerge v9.7.1 ('Pandemonium') 64bit
Writing library : libebml v1.3.4 + libmatroska v1.4.5

Video
ID : 1
Format : AVC
Format/Info : Advanced Video Codec
Format profile : High@L4
Format settings, CABAC : Yes
Format settings, ReFrames : 4 frames
Codec ID : V_MPEG4/ISO/AVC
Duration : 1h 57mn
Bit rate mode : Variable
Bit rate : 12.1 Mbps
Maximum bit rate : 15.0 Mbps
Width : 1 920 pixels
Height : 1 040 pixels
Display aspect ratio : 1.85:1
Frame rate mode : Constant
Frame rate : 23.976 (24000/1001) fps
Color space : YUV
Chroma subsampling : 4:2:0
Bit depth : 8 bits
Scan type : Progressive
Bits/(Pixel*Frame) : 0.253
Stream size : 9.93 GiB (89%)
Writing library : x264 core 148 r2623 d5b2374
Encoding settings : cabac=1 / ref=4 / deblock=1:-1:-1 / analyse=0x3:0x133 / me=umh / subme=9 / psy=1 / psy_rd=1.00:0.15 / mixed_ref=1 / me_range=24 / chroma_me=1 / trellis=2 / 8x8dct=1 / cqm=0 / deadzone=21,11 / fast_pskip=1 / chroma_qp_offset=-3 / threads=32 / lookahead_threads=5 / sliced_threads=0 / nr=150 / decimate=1 / interlaced=0 / bluray_compat=0 / constrained_intra=0 / bframes=8 / b_pyramid=2 / b_adapt=2 / b_bias=0 / direct=3 / weightb=1 / open_gop=0 / weightp=2 / keyint=120 / keyint_min=61 / scenecut=0 / intra_refresh=0 / rc_lookahead=120 / rc=crf / mbtree=1 / crf=18.0 / qcomp=0.60 / qpmin=0 / qpmax=69 / qpstep=4 / vbv_maxrate=15000 / vbv_bufsize=31250 / crf_max=0.0 / nal_hrd=vbr / filler=0 / ip_ratio=1.40 / aq=3:1.00
Language : English
Default : Yes
Forced : No
Color range : Limited
Color primaries : BT.709
Transfer characteristics : BT.709
Matrix coefficients : BT.709

Audio #1
ID : 2
Format : AC-3
Format/Info : Audio Coding 3
Mode extension : CM (complete main)
Format settings, Endianness : Big
Codec ID : A_AC3
Duration : 1h 57mn
Bit rate mode : Constant
Bit rate : 448 Kbps
Channel(s) : 6 channels
Channel positions : Front: L C R, Side: L R, LFE
Sampling rate : 48.0 KHz
Frame rate : 31.250 fps (1536 spf)
Compression mode : Lossy
Stream size : 376 MiB (3%)
Title : Невафильм
Language : Russian
Default : Yes
Forced : No

Audio #2
ID : 3
Format : AC-3
Format/Info : Audio Coding 3
Mode extension : CM (complete main)
Format settings, Endianness : Big
Codec ID : A_AC3
Duration : 1h 57mn
Bit rate mode : Constant
Bit rate : 448 Kbps
Channel(s) : 6 channels
Channel positions : Front: L C R, Side: L R, LFE
Sampling rate : 48.0 KHz
Frame rate : 31.250 fps (1536 spf)
Compression mode : Lossy
Stream size : 376 MiB (3%)
Language : Russian
Default : No
Forced : No

Audio #3
ID : 4
Format : AC-3
Format/Info : Audio Coding 3
Mode extension : CM (complete main)
Format settings, Endianness : Big
Codec ID : A_AC3
Duration : 1h 57mn
Bit rate mode : Constant
Bit rate : 448 Kbps
Channel(s) : 6 channels
Channel positions : Front: L C R, Side: L R, LFE
Sampling rate : 48.0 KHz
Frame rate : 31.250 fps (1536 spf)
Compression mode : Lossy
Stream size : 376 MiB (3%)
Language : English
Default : No
Forced : No

Audio #4
ID : 5
Format : E-AC-3
Format/Info : Audio Coding 3
Format settings, Endianness : Big
Codec ID : A_EAC3
Duration : 1h 57mn
Bit rate mode : Constant
Bit rate : 224 Kbps
Channel(s) : 2 channels
Channel positions : Front: L R
Sampling rate : 48.0 KHz
Frame rate : 187.500 fps (256 spf)
Compression mode : Lossy
Stream size : 188 MiB (2%)
Title : WEB-DL
Language : English
Default : No
Forced : No

Text #1
ID : 6
Format : UTF-8
Codec ID : S_TEXT/UTF8
Codec ID/Info : UTF-8 Plain Text
Duration : 1h 56mn
Bit rate : 84 bps
Count of elements : 1378
Stream size : 72.2 KiB (0%)
Language : Russian
Default : No
Forced : No

Text #2
ID : 7
Format : UTF-8
Codec ID : S_TEXT/UTF8
Codec ID/Info : UTF-8 Plain Text
Duration : 1h 56mn
Bit rate : 76 bps
Count of elements : 2250
Stream size : 65.4 KiB (0%)
Language : English
Default : No
Forced : No

Menu
00:00:00.000 : en:Opening Credits/The Family Curse
00:05:14.000 : en:Welcome To Camp Green Lake
00:10:07.000 : en:Boys Of D-Tent
00:14:06.000 : en:The Legend Of Kissin' Kate Barlow
00:16:05.000 : en:Digging The First Hole
00:18:43.000 : en:Stanley Yelnats The First
00:24:14.000 : en:Yellow Spotted Lizards
00:26:33.000 : en:A Letter To Mom
00:28:07.000 : en:Onion Sam And Miss Katherine
00:31:06.000 : en:Don't Mess With Caveman
00:37:27.000 : en:Finding Something Special
00:43:53.000 : en:The Deal
00:52:40.000 : en:Miss Katherine's Revenge
00:53:57.000 : en:Mr. Sir's Sunflower Seeds
00:56:40.000 : en:The Warden's Recipe
00:59:26.000 : en:Stanley Teaches Zero To Read
01:10:48.000 : en:Zero Runs Away
01:14:10.000 : en:Stanley Goes After Zero
01:21:21.000 : en:Stanley And Zero Climb "God's Thumb"
01:28:01.000 : en:A Cure For Stinky Feet
01:29:10.000 : en:Zero Confesses
01:33:46.000 : en:Kissin' Kate's Last Stand
01:36:21.000 : en:One More Hole
01:47:46.000 : en:Opening The Chest/End Credits
 
Не забывайте говорить Спасибо. Не уходите с раздачи!   
Торрент: Зарегистрирован [11 янв 2017, 22:17] Для скачивания .torrent
необходима регистрация
Или скачать с помощью
MediaGet
Статус:
Проверен
 
.torrent скачан: 1 раз
Хэш: a8abe91f373edbc0f08670d6c14e9fb2e2a53b67
Размер: 11.22 ГБ (12 043 371 746 байт)
Стать Автором раздачи
 
 
Раздал: 100 ГБ
Скачал: 0 байт
Ратио: Seed.
Сообщения: 188762
Зарегистрирован: 09 апр 2015, 20:00


  • Похожие торренты
    Ответы
    Просмотры
    Последнее сообщение

Вернуться в Зарубежные фильмы (HD Video)

Ресурс не предоставляет электронные версии произведений, а занимается лишь коллекционированием и каталогизацией ссылок, присылаемых и публикуемых на форуме нашими читателями. Если вы являетесь правообладателем какого-либо представленного материала и не желаете чтобы ссылка на него находилась в нашем каталоге, свяжитесь с нами и мы незамедлительно удалим её. Файлы для обмена на трекере предоставлены пользователями сайта, и администрация не несёт ответственности за их содержание. Просьба не заливать файлы, защищенные авторскими правами, а также файлы нелегального содержания!
cron