Если свекровь - монстр / Monster-in-Law (Роберт Лукетич / Robert Luketic) [2005, США, комедия, мелодрама, SATRip] [Fullscreen] Dub

 
 Статистика раздачи 
Размер: 1.45 ГБ   |  Зарегистрирован: 11 янв 2017, 21:00   |   .torrent скачан: 0 раз
Сидеров: 1  [ 0 байт/сек ]     Личеров: 0  [ 0 байт/сек ]  
  

Если свекровь - монстр / Monster-in-Law (Роберт Лукетич / Robert Luketic) [2005, США, комедия, мелодрама, SATRip] [Fullscreen] Dub

Сообщение aLaVodka » 11 янв 2017, 21:00

Если свекровь - монстр / Monster-in-Law / Fullscreen

Страна: США
Жанр: комедия, мелодрама
Год выпуска: 2005
Продолжительность: 01:32:02

Перевод: Профессиональный (дублированный)
Cубтитры: нет
Оригинальная аудиодорожка: нет

Режиссер: Роберт Лукетич / Robert Luketic

В ролях: Дженнифер Лопез / Jennifer Lopez, Джейн Фонда / Jane Fonda, Майкл Вартан / Michael Vartan, Ванда Сайкес / Wanda Sykes, Адам Скотт / Adam Scott, Монит Мазур / Monet Mazur, Энни Париссе / Annie Parisse, Уилл Арнетт / Will Arnett, Илэйн Стритч / Elaine Stritch, Стивен Данэм / Stephen Dunham

Описание: Несмотря на свой ум и красоту, бесконечные попытки Шарлотты «Чарли» Кантиллини найти себе подходящего мужчину оказываются неудачными. И вот она встречает Кевина — красивого, заботливого, преуспевающего и… свободного молодого человека! Более того, даже после многих месяцев встреч Чарли не удается отыскать в нем хоть какой-нибудь недостаток.
Неужели, в конце концов, она нашла идеального мужчину? Итак, Кевин делает Чарли предложение. Казалось бы, все безупречно. Но не тут-то было. Вместе с Кевином появляется Виола — властная мамаша с явными замашками собственницы, которая ни перед чем не остановится, чтобы саботировать предстоящую свадьбу сына…

Доп. информация: Наполнение кадра отличается от Widescreen http://screenshotcomparison.com/comparison/196708 и Open Matte (в основном на FS обрезок, но иногда добавлено) http://screenshotcomparison.com/comparison/196709

Сэмпл: http://multi-up.com/1135242

Качество видео: SATRip
Формат видео: AVI

Видео: MPEG4, XviD, 704x528 (4:3), 25.000 fps, 2 054 Kbps (0.221 bit/pixel)
Аудио: AC-3, 48.0 KHz, 2 ch, 192 Kbps, CBR
Общее
Полное имя : M:\Если свекровь - монстр.avi
Формат : AVI
Формат/Информация : Audio Video Interleave
Размер файла : 1,45 Гбайт
Продолжительность : 1 ч. 32 м.
Общий поток : 2256 Кбит/сек
Название фильма : Если свекровь - монстр / Monster-in-Law (2005)
Программа кодирования : VirtualDubMod 1.5.10.2 (build 2540/release)
Библиотека кодирования : VirtualDubMod build 2540/release
Авторское право : miha2154

Видео
Идентификатор : 0
Формат : MPEG-4 Visual
Профиль формата : Advanced Simple@L5
Параметр BVOP формата : 1
Параметр QPel формата : Нет
Параметр GMC формата : Без точки перехода
Параметр матрицы формата : Выборочная
Идентификатор кодека : XVID
Идентификатор кодека/Подсказка : XviD
Продолжительность : 1 ч. 32 м.
Битрейт : 2054 Кбит/сек
Ширина : 704 пикселя
Высота : 528 пикселей
Соотношение сторон : 4:3
Частота кадров : 25,000 кадров/сек
Цветовое пространство : YUV
Субдискретизация насыщенности : 4:2:0
Битовая глубина : 8 бит
Тип развёртки : Прогрессивная
Метод сжатия : С потерями
Бит/(Пиксели*Кадры) : 0.221
Размер потока : 1,32 Гбайт (91%)
Библиотека кодирования : XviD 65

Аудио
Идентификатор : 1
Формат : AC-3
Формат/Информация : Audio Coding 3
Расширение режима : CM (complete main)
Параметр Endianness формата : Big
Идентификатор кодека : 2000
Продолжительность : 1 ч. 32 м.
Вид битрейта : Постоянный
Битрейт : 192 Кбит/сек
Каналы : 2 канала
Расположение каналов : Front: L R
Частота : 48,0 КГц
Частота кадров : 31,250 кадров/сек (1536 spf)
Метод сжатия : С потерями
Размер потока : 127 Мбайт (9%)
Выравнивание : Разделение по промежуткам
Продолжительность промежутка : 40 мс. (1,00 видеокадр)
Время предзагрузки промежутка : 500 мс.
Заголовок : Профессиональный (полное дублирование)


 
Не забывайте говорить Спасибо. Не уходите с раздачи!   
Торрент: Зарегистрирован [11 янв 2017, 21:00] Для скачивания .torrent
необходима регистрация
Или скачать с помощью
MediaGet
Статус:
Проверен
 
.torrent скачан: 0 раз
Хэш: 29759c4c7d431d5173a2c90a8a5d291839ba8534
Размер: 1.45 ГБ (1 559 281 664 байт)
Стать Автором раздачи
 
 
Раздал: 100 ГБ
Скачал: 0 байт
Ратио: Seed.
Сообщения: 186623
Зарегистрирован: 09 апр 2015, 20:00


  • Похожие торренты
    Ответы
    Просмотры
    Последнее сообщение

Вернуться в Зарубежные фильмы 2001-2005 года

Кто сейчас на конференции

Сейчас эту тему просматривают: нет зарегистрированных пользователей и гости: 1

Ресурс не предоставляет электронные версии произведений, а занимается лишь коллекционированием и каталогизацией ссылок, присылаемых и публикуемых на форуме нашими читателями. Если вы являетесь правообладателем какого-либо представленного материала и не желаете чтобы ссылка на него находилась в нашем каталоге, свяжитесь с нами и мы незамедлительно удалим её. Файлы для обмена на трекере предоставлены пользователями сайта, и администрация не несёт ответственности за их содержание. Просьба не заливать файлы, защищенные авторскими правами, а также файлы нелегального содержания!