Люби меня, мой рыцарь / Aishite Knight / Ai shite knight / Aishite naito / Rock'n'Roll Kids [TV] [1-18 из 42] [Без хардсаба] [JAP, SUB] [1983, комедия, романтика, сёдзё, TVRip]

 
 Статистика раздачи 
Размер: 2.93 ГБ   |  Зарегистрирован: 11 янв 2017, 17:23   |   .torrent скачан: 0 раз
Сидеров: 1  [ 0 байт/сек ]     Личеров: 0  [ 0 байт/сек ]  
  

Люби меня, мой рыцарь / Aishite Knight / Ai shite knight / Aishite naito / Rock'n'Roll Kids [TV] [1-18 из 42] [Без хардсаба] [JAP, SUB] [1983, комедия, романтика, сёдзё, TVRip]

Сообщение aLaVodka » 11 янв 2017, 17:23

Люби меня, мой рыцарь / Aishite Knight / Ai shite knight / Aishite naito / Rock'n'Roll Kids

Страна: Япония
Год выпуска: 1983 г.
Жанр: комедия, романтика, сёдзё
Тип: TV
Продолжительность: 42 эп, ~25 мин. серия
Режиссер: Касай Осаму
Студия: Toei Animation

Описание: Главная героиня 18-летняя Аэко «Якко» Митамура живёт в Осаке и работает в ресторане окономияки со своим отцом. Однажды она встречает маленького мальчика Хасидзо с котом Юлианом. Мальчик потерял своих родителей в детстве и его растит старший брат. Брат Хасидзо Го Като — солист новой рок-группы «Bee Hive». Когда Го и Аэко встречаются, между ними начинается длинный и запутанный роман.

Качество: TVRip
Тип релиза: Без хардсаба
Формат видео: AVI
Видео: DivX 5, 640х480, 886 Kbps, 23.976 fps, 8 bits
Аудио: MP3, 128 Kbps, 48.0 KHz, 1 channel Язык Японский
Субтитры: .ass, внешние Язык субтитров русский ; Перевод: Dea Fera
Код: Выделить всё
General
Complete name                            : D:\Dea Fera\torrent\Aishite Knight\Aishite Knight - 01.avi
Format                                   : AVI
Format/Info                              : Audio Video Interleave
File size                                : 182 MiB
Duration                                 : 24mn 53s
Overall bit rate                         : 1 024 Kbps
Writing library                          : This file was made by AviUtl 0.98d.

Video
ID                                       : 0
Format                                   : MPEG-4 Visual
Format settings, BVOP                    : 1
Format settings, QPel                    : No
Format settings, GMC                     : No warppoints
Format settings, Matrix                  : Default (H.263)
Muxing mode                              : Packed bitstream
Codec ID                                 : DX50
Codec ID/Hint                            : DivX 5
Duration                                 : 24mn 53s
Bit rate                                 : 886 Kbps
Width                                    : 640 pixels
Height                                   : 480 pixels
Display aspect ratio                     : 4:3
Frame rate                               : 23.976 fps
Color space                              : YUV
Chroma subsampling                       : 4:2:0
Bit depth                                : 8 bits
Scan type                                : Progressive
Compression mode                         : Lossy
Bits/(Pixel*Frame)                       : 0.120
Stream size                              : 158 MiB (86%)
Writing library                          : DivX 5.0.2 (UTC 2002-05-16)

Audio
ID                                       : 1
Format                                   : MPEG Audio
Format version                           : Version 1
Format profile                           : Layer 3
Codec ID                                 : 55
Codec ID/Hint                            : MP3
Duration                                 : 24mn 53s
Bit rate mode                            : Constant
Bit rate                                 : 128 Kbps
Channel(s)                               : 1 channel
Sampling rate                            : 48.0 KHz
Compression mode                         : Lossy
Stream size                              : 22.8 MiB (12%)
Alignment                                : Split accross interleaves
Interleave, duration                     : 33 ms (0.80 video frame)
Interleave, preload duration             : 42 ms
1. Мальчик, кот и беспардонный парень
2. Кот, который не любит женщин
3. Еще слишком рано для поцелуя
4. Судьбоносная встреча с рок-н-роллом
5. Свадебные куклы Го и Якко
6. Полуночная платоническая любовь
7. Любовный треугольник
8. Забытая любовная песня
9. Иллюзия поцелуя
10. Подарок для Го
11. Прощай, Го
12. Любовная Головоломка
13. Дорогой Печали
14. Ноктюрн любви и расставания
15. Хасидзо похищен!
16. Рок-н-ролл под дождем
17. Джулиано - всем котам кот
18. Радужный скэт Якко
19. Hashizou-chan's birthday
20. Lonely boy at night
21. Go! Gou! Bee Hives
22. Dawn at the beach
23. Hot kiss in the forest
24. Together in the storm
25. Summer festival's samba
26. Hot song by the lake
27. Interchange of love
28. Yakko's first kiss
29. Baby I Love You
30. A call of love from the starry sky
31. The return of the wedding doll
32. The wedding of love and sadness
33. Solitary heart
34. Prelude to farewell
35. The drum machine is broken
36. The fire of love
37. The lullaby from Paris
38. The melody of the little star
39. El pran de Elisa y Jorge
40. A ballard the colour of snow
41. The lovers's concerto
42. Boda a la vista




11.01.2017 Добавлена 18 серия
 
Не забывайте говорить Спасибо. Не уходите с раздачи!   
Торрент: Зарегистрирован [11 янв 2017, 17:23] Для скачивания .torrent
необходима регистрация
Или скачать с помощью
MediaGet
Статус:
Проверен
 
.torrent скачан: 0 раз
Хэш: c64fd19593f78a6c0fb29b8f8fc6bbc1aca02c1c
Размер: 2.93 ГБ (3 141 347 159 байт)
Стать Автором раздачи
 
 
Раздал: 100 ГБ
Скачал: 0 байт
Ратио: Seed.
Сообщения: 188762
Зарегистрирован: 09 апр 2015, 20:00


  • Похожие торренты
    Ответы
    Просмотры
    Последнее сообщение

Вернуться в Аниме (Основной)

Ресурс не предоставляет электронные версии произведений, а занимается лишь коллекционированием и каталогизацией ссылок, присылаемых и публикуемых на форуме нашими читателями. Если вы являетесь правообладателем какого-либо представленного материала и не желаете чтобы ссылка на него находилась в нашем каталоге, свяжитесь с нами и мы незамедлительно удалим её. Файлы для обмена на трекере предоставлены пользователями сайта, и администрация не несёт ответственности за их содержание. Просьба не заливать файлы, защищенные авторскими правами, а также файлы нелегального содержания!
cron