Класс / Class (Льюис Джон Карлино / Lewis John Carlino) [1983, США, комедия, мелодрама, BDRip] DVO (НТВ / MGM) + 2хAVO (Михалёв, Володарский) + Sub Rus, Eng + original Eng

 
 Статистика раздачи 
Размер: 1.85 ГБ   |  Зарегистрирован: 11 янв 2017, 17:08   |   .torrent скачан: 0 раз
Сидеров: 2  [ 0 байт/сек ]     Личеров: 1  [ 0 байт/сек ]  
  

Класс / Class (Льюис Джон Карлино / Lewis John Carlino) [1983, США, комедия, мелодрама, BDRip] DVO (НТВ / MGM) + 2хAVO (Михалёв, Володарский) + Sub Rus, Eng + original Eng

Сообщение aLaVodka » 11 янв 2017, 17:08

Класс / Class

Страна: США
Жанр
: комедия, мелодрама
Год выпуска: 1983
Продолжительность: 01:38:30

Перевод: Профессиональный (двухголосый закадровый) - НТВ / MGM
Перевод: Авторский (одноголосый закадровый) - Алексей Михалёв
Перевод: Авторский (одноголосый закадровый) - Леонид Володарский
Cубтитры: русские, английские
Оригинальная дорожка: английский

Режиссер: Льюис Джон Карлино / Lewis John Carlino

В ролях: Жаклин Биссет, Роб Лоу, Эндрю МакКарти, Клифф Робертсон, Стюарт Марголин, Джон Кьюсак, Алан Рак, Родни Пирсон, Римэк Рамсей, Вирджиния Мэдсен

Описание: Старшеклассник Джонатан поступает в престижную частную школу. Веселые приколы и розыгрыши делают Джонатана и его соседа по комнате Скипа друзьями. И стоит только Джонатану признаться, что он еще девственник, Скип организует свидание с двумя ученицами женской школы. Но Джонатан напивается и на редкость неуклюже ведет себя на вечеринке. Тогда Скип отправляет его в Чикаго, дав адреса нескольких злачных мест, и Джонатан знакомится с эффектной 38-летней женщиной Эллен. Они занимаются любовью в лифте, а затем перебираются в мотель, где проводят несколько наполненных страстью дней. Но Эллен узнает, что Джонатан еще школьник, и исчезает. Скип приглашает расстроенного Джонатана провести каникулы в загородном доме своих родителей и знакомит с матерью, которой оказывается… Эллен!

Качество видео:
Формат видео
: AVI

Видео: 704x384 (1.83:1), 23.976 fps, XviD build 73 ~1913 kbps avg, 0.29 bit/pixel
Аудио: 48 kHz, AC3 Dolby Digital, 2/0 (L,R) ch, ~192 kbps - НТВ
отдельными файлами:
Аудио: 48 kHz, AC3 Dolby Digital, 2/0 (L,R) ch, ~192 kbps - Михалёв
Аудио: 48 kHz, AC3 Dolby Digital, 2/0 (L,R) ch, ~192 kbps - Володарский
Аудио: 48 kHz, AC3 Dolby Digital, 2/0 (L,R) ch, ~192 kbps - оригинал
General
Complete name : H:\Class.1983.bdrip_[1.46]_[teko]\Class.1983.bdrip_[1.46].avi
Format : AVI
Format/Info : Audio Video Interleave
File size : 1.46 GiB
Duration : 1h 38mn
Overall bit rate : 2 115 Kbps
Writing application : VirtualDubMod 1.5.10.3 | www.virtualdub-fr.org || (build 2550/release)
Writing library : VirtualDubMod build 2550/release

Video
ID : 0
Format : MPEG-4 Visual
Format profile : Advanced Simple@L5
Format settings, BVOP : 2
Format settings, QPel : No
Format settings, GMC : No warppoints
Format settings, Matrix : Custom
Codec ID : XVID
Codec ID/Hint : XviD
Duration : 1h 38mn
Bit rate : 1 914 Kbps
Width : 704 pixels
Height : 384 pixels
Display aspect ratio : 1.85:1
Frame rate : 23.976 (23976/1000) fps
Color space : YUV
Chroma subsampling : 4:2:0
Bit depth : 8 bits
Scan type : Progressive
Compression mode : Lossy
Bits/(Pixel*Frame) : 0.295
Stream size : 1.32 GiB (90%)
Writing library : XviD 73

Audio
ID : 1
Format : AC-3
Format/Info : Audio Coding 3
Mode extension : CM (complete main)
Format settings, Endianness : Big
Codec ID : 2000
Duration : 1h 38mn
Bit rate mode : Constant
Bit rate : 192 Kbps
Channel(s) : 2 channels
Channel positions : Front: L R
Sampling rate : 48.0 KHz
Frame rate : 31.250 fps (1536 spf)
Compression mode : Lossy
Stream size : 135 MiB (9%)
Alignment : Split accross interleaves
Interleave, duration : 42 ms (1.00 video frame)
Interleave, preload duratio : 500 ms
Релиз группы:


 
Не забывайте говорить Спасибо. Не уходите с раздачи!   
Торрент: Зарегистрирован [11 янв 2017, 17:08] Для скачивания .torrent
необходима регистрация
Или скачать с помощью
MediaGet
Статус:
Проверен
 
.torrent скачан: 0 раз
Хэш: 32e66d0773b53270b8cece7aab13132f19d1abf4
Размер: 1.85 ГБ (1 988 702 652 байт)
Стать Автором раздачи
 
 
Раздал: 100 ГБ
Скачал: 0 байт
Ратио: Seed.
Сообщения: 186583
Зарегистрирован: 09 апр 2015, 20:00


  • Похожие торренты
    Ответы
    Просмотры
    Последнее сообщение

Вернуться в Зарубежные фильмы до 1990 года

Кто сейчас на конференции

Сейчас эту тему просматривают: нет зарегистрированных пользователей и гости: 1

Ресурс не предоставляет электронные версии произведений, а занимается лишь коллекционированием и каталогизацией ссылок, присылаемых и публикуемых на форуме нашими читателями. Если вы являетесь правообладателем какого-либо представленного материала и не желаете чтобы ссылка на него находилась в нашем каталоге, свяжитесь с нами и мы незамедлительно удалим её. Файлы для обмена на трекере предоставлены пользователями сайта, и администрация не несёт ответственности за их содержание. Просьба не заливать файлы, защищенные авторскими правами, а также файлы нелегального содержания!