Яйба, самурай-легенда / Kenyuu Densetsu Yaiba [TV] [10 из 52] [Без хардсаба] [JAP, SUB] [1993, экшен, комедия, фэнтези, DVDRip]

 
 Статистика раздачи 
Размер: 2.34 ГБ   |  Зарегистрирован: 11 янв 2017, 13:00   |   .torrent скачан: 0 раз
Сидеров: 5  [ 0 байт/сек ]     Личеров: 1  [ 0 байт/сек ]  
  

Яйба, самурай-легенда / Kenyuu Densetsu Yaiba [TV] [10 из 52] [Без хардсаба] [JAP, SUB] [1993, экшен, комедия, фэнтези, DVDRip]

Сообщение aLaVodka » 11 янв 2017, 13:00

Яйба, самурай-легенда / Kenyuu Densetsu Yaiba
Страна: Япония
Год: 1993
Жанр: экшен, комедия, фентези
Тип: TV
Продолжительность: 52 эп, ~ 22 мин. серия
Добавлено: 10 серий из 52.
Режиссер: Такао Като
Студия:

Описание: Курогане Яйба - мальчик, который не хочет расти обычным заурядным мальчишкой: он хочет стать самураем. Вот почему он подвергся жестким тренировкам своего отца, для которого лес, как дом родной. Затем, в один день, его отправляют в Японию, где он соприкоснется с новой действительностью цивилизованного мира. Встретит семейство Минэ, злого Онимару и даже легендарного Мусаши, встречая много опасности на своем пути, он будет шаг за шагом приближаться к своей мечте, стать сильнейшим самураем в Японии!

Доп. информация: очередной шедевр от автора Detective Conan и Magic Kaito, Госё Аояма.

Качество: DVDRip
Автор рипа: NAOKI-Raws
Тип релиза:Без хардсаба
Формат видео: MKV
Совместимость с бытовыми плеерами: Нет
Видео: x264, 8 bit, 832x624, 23.976 fps, ~1 300 Kbps
Аудио: Dolby AC3, 48000Hz, stereo, 192Kbps Язык Японский
Субтитры: Язык субтитров - русский (внешние - подгружаемые) Перевод: Uncut - первая серия. JAMS - 2-10 серии
01. Heisei's Samurai Yaiba Appears!
02. The Awakening of the Sword of Fuujin!
03. Sword Of Raijin/Sword Of Fuujin
04. The Eight Demons: Frog Man's Assault
05. Special Attack Senpuu Ken!!
06. Frightening Slug Man Appears
07. The Eight Demons: Spider Man's Weakness!?
08. Vampire: Bat Guy!
09. The Secret of the Onimaru Manjuu
10. The Revival of the Master Swordsman, Kojiro
11. Who Is the Strongest Swordsman?!
12. The Birth of the Kaminari Giri!
13. Gigantic Anglerfish! Sneak into Onimaru Castle
14. Vanished, the Enemy Chameleon!
15. Kojiro's Betrayal!
16. The Strongest Machine of the Four Guardians Attacks!
17. Wind and Thunder Clash! Yaiba vs. Onimaru
18. Searching for the Legendary Orb!
19. What Kind of an Orb is the Golden Orb?
20. Legend of the Red Dragon!! Amakusa Shirou Appears!
Format : Matroska
Format version : Version 4 / Version 2
File size : 240 MiB
Duration : 22mn 25s
Overall bit rate : 1 494 Kbps
Encoded date : UTC 2015-11-18 11:45:28
Writing application : mkvmerge v7.8.0 ('River Man') 64bit built on Mar 27 2015 16:31:37
Writing library : libebml v1.3.1 + libmatroska v1.4.2
DURATION : 00:22:25.312000000
NUMBER_OF_FRAMES : 42041
NUMBER_OF_BYTES : 32287488
_STATISTICS_WRITING_APP : mkvmerge v7.8.0 ('River Man') 64bit built on Mar 27 2015 16:31:37
_STATISTICS_WRITING_DATE_UTC : 2015-11-18 11:45:28
_STATISTICS_TAGS : BPS DURATION NUMBER_OF_FRAMES NUMBER_OF_BYTES

Video
ID : 1
Format : AVC
Format/Info : Advanced Video Codec
Format profile : High@L4.1
Format settings, CABAC : Yes
Format settings, ReFrames : 6 frames
Codec ID : V_MPEG4/ISO/AVC
Duration : 22mn 25s
Bit rate : 1 300 Kbps
Width : 832 pixels
Height : 624 pixels
Display aspect ratio : 4:3
Frame rate : 23.976 fps
Color space : YUV
Chroma subsampling : 4:2:0
Bit depth : 8 bits
Scan type : Progressive
Bits/(Pixel*Frame) : 0.104
Stream size : 204 MiB (85%)
Writing library : x264 core 146 r2538bm 121396c
Encoding settings : cabac=1 / ref=6 / deblock=1:1:1 / analyse=0x3:0x133 / me=umh / subme=9 / psy=1 / psy_rd=0.40:0.00 / mixed_ref=1 / me_range=24 / chroma_me=1 / trellis=1 / 8x8dct=1 / cqm=0 / deadzone=21,11 / fast_pskip=0 / chroma_qp_offset=-2 / threads=12 / lookahead_threads=1 / sliced_threads=0 / nr=0 / decimate=1 / interlaced=0 / bluray_compat=0 / constrained_intra=0 / bframes=3 / b_pyramid=2 / b_adapt=2 / b_bias=0 / direct=3 / weightb=1 / open_gop=0 / weightp=2 / keyint=250 / keyint_min=23 / scenecut=40 / intra_refresh=0 / rc_lookahead=50 / rc=2pass / mbtree=1 / bitrate=1300 / ratetol=1.0 / qcomp=0.60 / qpmin=0 / qpmax=69 / qpstep=4 / cplxblur=20.0 / qblur=0.5 / ip_ratio=1.40 / aq=1:1.40

Audio
ID : 2
Format : AC-3
Format/Info : Audio Coding 3
Mode extension : CM (complete main)
Codec ID : A_AC3
Duration : 22mn 25s
Bit rate mode : Constant
Bit rate : 192 Kbps
Channel(s) : 2 channels
Channel positions : Front: L R
Sampling rate : 48.0 KHz
Bit depth : 16 bits
Compression mode : Lossy
Delay relative to video : 25ms
Stream size : 30.8 MiB (13%)

Menu
00:00:00.000 : en:Chapter 1
00:01:29.934 : en:Chapter 2
00:10:54.868 : en:Chapter 3
00:20:49.802 : en:Chapter 4
00:22:04.869 : en:Chapter 5[/pre]



ДОБАВЛЕНА 10 СЕРИЯ. ПЕРЕКАЧАЙТЕ ТОРРЕНТ! 11.01.2017
также есть небольшие правки в субтитрах (2-9), перекачайте с ними!
видео файлы заменены на более лучшие по качеству!
 
Не забывайте говорить Спасибо. Не уходите с раздачи!   
Торрент: Зарегистрирован [11 янв 2017, 13:00] Для скачивания .torrent
необходима регистрация
Или скачать с помощью
MediaGet
Статус:
Проверен
 
.torrent скачан: 0 раз
Хэш: b4d542931770df7c8f5a8328a0b03560de7f00c7
Размер: 2.34 ГБ (2 514 326 591 байт)
Стать Автором раздачи
 
 
Раздал: 100 ГБ
Скачал: 0 байт
Ратио: Seed.
Сообщения: 185371
Зарегистрирован: 09 апр 2015, 20:00


  • Похожие торренты
    Ответы
    Просмотры
    Последнее сообщение

Вернуться в Аниме (Основной)

Кто сейчас на конференции

Сейчас эту тему просматривают: нет зарегистрированных пользователей и гости: 1

Ресурс не предоставляет электронные версии произведений, а занимается лишь коллекционированием и каталогизацией ссылок, присылаемых и публикуемых на форуме нашими читателями. Если вы являетесь правообладателем какого-либо представленного материала и не желаете чтобы ссылка на него находилась в нашем каталоге, свяжитесь с нами и мы незамедлительно удалим её. Файлы для обмена на трекере предоставлены пользователями сайта, и администрация не несёт ответственности за их содержание. Просьба не заливать файлы, защищенные авторскими правами, а также файлы нелегального содержания!