Вторая мировая война: цена империи (чего стоит империя) (13 серий из 13) / World War II - The Price of Empire [2015, Документальный, война, история, HDTVRip]

 
 Статистика раздачи 
Размер: 9.46 ГБ   |  Зарегистрирован: 11 янв 2017, 12:28   |   .torrent скачан: 98 раз
Сидеров: 23  [ 0 байт/сек ]     Личеров: 6  [ 0 байт/сек ]  
  

Вторая мировая война: цена империи (чего стоит империя) (13 серий из 13) / World War II - The Price of Empire [2015, Документальный, война, история, HDTVRip]

Сообщение aLaVodka » 11 янв 2017, 12:28

Вторая мировая война: цена империи (чего стоит империя) (13 серий из 13) / World War II - The Price of Empire

11.01.2017
Внимание!
Раздача перезалита в лучшем качестве (HDTVRip)


Дата/Год выпуска: 2015
Страна: Великобритания, WildBear Entertainment
Жанр: Документальный, война, история
Продолжительность: 13 х ~ 00:49:34
Перевод: Профессиональный (дублированный)
Телеканал: Viasat History

Описание: Благодаря самому огромному видеоархиву в мире мы сможем увидеть, насколько сильно изменился мир за время войны. Сотни часов хроники, освещающей конфликт, военные и политические действия, которые привели к смене традиционной власти. Плюс, то, что мы узнали из архива, мы дополнили свидетельствами ветеранов конфликта из стран всего мира, включая Польшу, Россию, Индию и Британию, записанные эксклюзивно для цикла этих документальных передач. Некоторые моменты будут дополнены анимационными пояснениями тактических действий.

Доп. информация: Авторство релиза - alf62


качество: HDTVRip
формат: AVI
Видео: 720x400 (1.80:1), 25 fps, XviD build 73 ~1899 kbps avg, 0.26 bit/pixel
Аудио: 48 kHz, AC3 Dolby Digital, 2/0 (L,R) ch, ~192.00 kbps avg
1. Грядущая буря / The Gathering Storm
В годы между войнами появились диктаторы, случились акции умиротворения и установилась политика III Рейха до вторжения в Польшу. Вторжение Японии в Китай в 1937 превратилось в масштабный конфликт.

2. Странная война / The Phony War
Вторжение в Польшу вынудило объявить войну даже самые сдержанные нации. Премьер-министра Британии сменил Уинстон Черчилль. Ранние военно-морские столкновения начали задавать тон войне.

3. Блицкриг / Blitzkrieg
Война разгорается по всей Западной Европе. Сухопутные войска, десант и ВВС Германии делают её поистине неудержимой силой. Франция уже готова пасть под натиском нацистов.

4. В одиночку / Alone
Люфтваффе пытаются нейтрализовать британские ВВС, но сталкивается с сопротивлением. «Блицкриг» всё равно был приведён в действие, и немцы отправляют подкрепление своим союзникам в Северной Африке.

5. «Барбаросса» / Barbarossa
Переломный момент войны в Европе настал 22 июня 1941 года, когда Гитлер приводит в действие план «Барбаросса», и немцы начинают вторжение в Советский Союз.

6. Позорная дата / A Day in Infamy
Японские войска оккупировали Южный Вьетнам и Камбоджу, но день, изменивший ход войны - 7 декабря, когда японские ВВС атаковали тихоокеанский флот ВМС США в Пёрл-Харбор.

7. Переломный момент / The Turning Point
Успехи Японии в войне на Востоке хоть и ощутимы, но приближение их поражения видно невооружённым глазом, так как они пробудили военную мощь США.

8. Конец начала / The End of the Beginning
Альянс переломил ход войны в свою пользу. Вражеские силы потерпели поражение в Эль-Аламейне, японцы были разгромлены на Гуадалканале, а немцы - под Сталинградом.

9. Начало конца / The Beginning of the End
Впервые происходит конференция лидеров Альянса, чтобы скоординировать свои дальнейшие действия. Японцы разгромлены на море, а Красная Армия начинает своё продвижение на Берлин.

10. Операция «Оверлорд» / Overlord
Под натиском России немцы продолжают отступление, но самое значительное событие этого этапа войны - открытие Второго фронта в Европе и проведение операции «Оверлорд» 6 июня.

11. Адские дни / Hell is on Us
Альянс продолжает наступление в восточном направлении от Нормандии, приближаясь к границе Германии. А на востоке Советский Союз начинает крупнейшую наступательную операцию - операцию «Багратион».

12. Безоговорочная капитуляция / Unconditional Surrender
Союзники успешно пересекают Рейн и продвигаются вглубь Германии, тем временем как Красная Армия полностью вытеснила вражеские войска со своей территории и уже приблизилась к Берлину.

13. Тысяча солнц / A Thousand Suns
Берлин пал - значит, война в Европе закончена. Окинава пала с огромными потерями с обеих сторон из-за подготовки ко вторжению на главный из островов архипелага. Позже было применено ужаснейшее оружие.
Код: Выделить всё
Цена.империи.(01.серия.).Грядущая.буря.2015.XviD..HDTVRip.alf62.avi
Формат                                   : AVI
Формат/Информация                        : Audio Video Interleave
Размер файла                             : 745 Мбайт
Продолжительность                        : 49 м.
Общий поток                              : 2102 Кбит/сек
Программа кодирования                    : VirtualDubMod 1.5.10.3 | www.virtualdub-fr.org || (build 2550/release)
Библиотека кодирования                   : VirtualDubMod build 2550/release

Видео
Идентификатор                            : 0
Формат                                   : MPEG-4 Visual
Профиль формата                          : Advanced [email protected]
Параметр BVOP формата                    : 2
Параметр QPel формата                    : Нет
Параметр GMC формата                     : Без точки перехода
Параметр матрицы формата                 : Default (MPEG)
Идентификатор кодека                     : XVID
Идентификатор кодека/Подсказка           : XviD
Продолжительность                        : 49 м.
Битрейт                                  : 1900 Кбит/сек
Ширина                                   : 720 пикселей
Высота                                   : 400 пикселей
Соотношение сторон                       : 16:9
Частота кадров                           : 25,000 кадров/сек
Цветовое пространство                    : YUV
Субдискретизация насыщенности            : 4:2:0
Битовая глубина                          : 8 бит
Тип развёртки                            : Прогрессивная
Метод сжатия                             : С потерями
Бит/(Пиксели*Кадры)                      : 0.264
Размер потока                            : 673 Мбайт (90%)
Библиотека кодирования                   : XviD 73

Аудио
Идентификатор                            : 1
Формат                                   : AC-3
Формат/Информация                        : Audio Coding 3
Расширение режима                        : CM (complete main)
Параметр Endianness формата              : Big
Идентификатор кодека                     : 2000
Продолжительность                        : 49 м.
Вид битрейта                             : Постоянный
Битрейт                                  : 192 Кбит/сек
Каналы                                   : 2 канала
Расположение каналов                     : Front: L R
Частота                                  : 48,0 КГц
Битовая глубина                          : 16 бит
Метод сжатия                             : С потерями
Размер потока                            : 68,1 Мбайт (9%)
Выравнивание                             : Разделение по промежуткам
Продолжительность промежутка             : 40  мс. (1,00 видеокадр)
Время предзагрузки промежутка            : 500  мс.






 
Не забывайте говорить Спасибо. Не уходите с раздачи!   
Торрент: Зарегистрирован [11 янв 2017, 12:28] Для скачивания .torrent
необходима регистрация
Или скачать с помощью
MediaGet
Статус:
Проверен
 
.torrent скачан: 98 раз
Хэш: 3e47819095ceb6b8a777127dc35d50356e98465b
Размер: 9.46 ГБ (10 162 776 064 байт)
Стать Автором раздачи
 
 
Раздал: 100 ГБ
Скачал: 0 байт
Ратио: Seed.
Сообщения: 182341
Зарегистрирован: 09 апр 2015, 20:00


  • Похожие торренты
    Ответы
    Просмотры
    Последнее сообщение

Вернуться в Вторая мировая война

Кто сейчас на конференции

Сейчас эту тему просматривают: нет зарегистрированных пользователей и гости: 1

Ресурс не предоставляет электронные версии произведений, а занимается лишь коллекционированием и каталогизацией ссылок, присылаемых и публикуемых на форуме нашими читателями. Если вы являетесь правообладателем какого-либо представленного материала и не желаете чтобы ссылка на него находилась в нашем каталоге, свяжитесь с нами и мы незамедлительно удалим её. Файлы для обмена на трекере предоставлены пользователями сайта, и администрация не несёт ответственности за их содержание. Просьба не заливать файлы, защищенные авторскими правами, а также файлы нелегального содержания!