В Поисках Дон Кихота: Проект Владимира Познера и Ивана Урганта / Серии: 1-6 (из 8) (Валерий Спирин) [2017, Документальный, HDTVRip 720p]

 
 Статистика раздачи 
Размер: 8.42 ГБ   |  Зарегистрирован: 11 янв 2017, 08:36   |   .torrent скачан: 0 раз
Сидеров: 1  [ 0 байт/сек ]     Личеров: 0  [ 0 байт/сек ]  
  

В Поисках Дон Кихота: Проект Владимира Познера и Ивана Урганта / Серии: 1-6 (из 8) (Валерий Спирин) [2017, Документальный, HDTVRip 720p]

Сообщение aLaVodka » 11 янв 2017, 08:36

В Поисках Дон Кихота: Проект Владимира Познера и Ивана Урганта


#77Год выпуска: 2017
Страна: Россия
Телеканал: Первый Канал HD | ООО "Эс Эф Продакшн"
Жанр: Документальный
Общая продолжительность: 4:47:35
Режиссер: Валерий Спирин
Ведущие: Владимир Познер и Иван Ургант
Описание: Владимир Познер о новом проекте: "Это седьмая наша попытка рассказать о стране. Испания - одна из самых интересных стран Европы - с очень сложной историей, с выдающимися художниками и чем-то очень близкая, как это ни странно, России. Испания очень долго была под игом мавров, Россия - под игом монголо-татар. О России часто говорили, что это не совсем Европа. Об Испании говорили, что Европа заканчивается у Пиренеев. То есть вроде бы и Испания не совсем Европа. Много схожего. Ну и еще, конечно, Испания - страна романтически таинственная с этим боем быков, с этими цыганскими танцами и напевами, с Кармен (хотя ее написал француз, но тем не менее). В общем, страна очень привлекательная вообще и для кино - особенно."
Автор рипа: lrn
Автор записи: TRAY_MAX | Doc66
Сэмпл: sendfile
Тип релиза: HDTVRip 720p
Контейнер: MKV
Видео: 1280x720 (16:9), 25,000 fps, H264, ~4000 kbps avg, ~0.174 bit/pixel
Аудио: 48 kHz, AC3 Dolby Digital, 2/0 (L,R) ch, ~192.00 kbps avg
Долгое время остальная Европа считала, что Испания - не Европа, а что-то совсем другое. До сих пор существует немало стереотипных представлений об Испании, в том числе миф о том, что это страна вечного праздника, в которой живут беспечные и праздные люди. И практически для всех главный испанец - это Дон Кихот. Жив ли в Испании кихотский дух? Владимир Познер и Иван Ургант решают выяснить это. Ведущие отправляются на поиски Дон Кихота. Они будут искать его повсюду. В разных людях.

В первой серии путешественники проедут по маршруту легендарного идальго. Пройдут шуточный обряд посвящения в рыцари. Познакомятся с современной Дульсинееей. И попытаютcя разобраться в том, кто такие испанцы и что такое испанское.
В 711 году мавры переправились через Гибралтар, высадились на Пиренейском полуострове и в течение нескольких лет покорили почти все Вестготское королевство. Лишь на севере, в горах Астурии, сохранилось крохотное независимое христианское королевство. Отсюда христиане и начали оттеснять мавров с захваченных земель. Эта война, растянувшаяся на восемь веков, получила название "Реконкиста" - отвоевание.

Реконкиста была великой победой. Но чем обернулась она? Изгнанием евреев; Преследованием и изгнанием мавров; Властью Инквизиции, приведшей к взгляду, что "в Испании ты либо католик, либо никто". К завоеванию Америки, получению сказочных богатств и к превращению инков и майя в рабов, что в свою очередь открыло двери работорговле как бизнесу. В результате всего этого Испания всего лишь около ста лет была не только великой державой, но самой великой в Европе, но потом стремительно сдала свои позиции и оказалась на задворках Европы. Именно тогда из-за этого возникло выражение: Европа кончается у Пиренеев.

Какое влияние мавры оказали на формирование испанского национального храктера. На испанский язык. На кухню и на культуру Испании. Об этом пойдет речь в этой серии.
Извечная проблема: в результате определенных исторических обстоятельств формируется единая страна, и почти всегда она формируется в результате кровопролитных войн между ее разными регионами. Побеждает же один. В случае с Испанией, этим победителем оказалась Кастилия. Среди проигравших была Каталония, но она дольше всех и отчаянней всех дралась за независимость. И не смирилась с поражением. На протяжении нескольких веков противостояние нарастало и несколько раз заканчивалось кровопролитием.

После смерти Франко, во времена которого подавлялись всякие проявления национальной идентичности, Каталония, наконец, получила свой парламент, свое правительство, полицию, радио, телевидение. Каталонский язык признан официальным наравне с испанским. Но это не охладило пыл каталонцев. При любой возможности каждый из них напомнит, что он - каталонец, а не испанец.

Владимир Познер и Иван Ургант попытаются понять, чем каталонцы отличаются от испанцев. Что такое каталонский национальный характер. Кого называют каталонским Дон Кихотом. Ведущие познакомятся с самобытными народными традициями. А также обсудят с разными людьми насущный вопрос об отделении Каталонии от Испании.
Страстность - свойство характера присущее далеко не каждому народу. Испанцы страстны во всем - в конфликтах и дружбе, любви и ненависти, в пении и, конечно, в танце. Фламенко - воплощенная страсть - чувство, в котором не бывает середины, в нем есть только "да" и "нет", любовь или смерть.

Чтобы понять суть этого явления и почувствовать дух фламенко, Владимир Познер и Иван Ургант заглянут "за кулисы" этого cтрастного искусства. По традиции представления фламенко проходят в очень маленьких заведениях, они называются таблао. Фламенко не терпит больших пространств - чем короче дистанция, тем сильнее обмен энергией между выступающими и зрителями.

Артисты фламенко поделятся с ведущими своими секретами, расскажут о том, что такое дуэнде, как рождается танец. Фламенко - это работа, это расписание, это бесконечные репетиции, в которых отрабатываются отдельные элементы. И в то же время - это полная свобода, все построено на импровизации. Это больше чем танец. Фламенко - это универсальный язык для разговора о любви и страсти, жизни и смерти.
В этой серии ведущие вспоминают один из самых тяжелых периодов испанской истории - период Гражданской войны, которая закончилась победой франкистов и установлением диктатуры Франко.

Франко пробыл у власти 40 лет и умер 20 ноября 1975 года. Его похороны напоминали похороны Сталина. Вдоль всего пути траурного кортежа от центра Мадрида до Долины павших стояли тысячи людей. Для одних смерть каудильо стала величайшим горем, для других - величайшей радостью. Испанцы до сих пор расходятся в оценке того, кто в этой истории олицетворяет добро, а кто зло. После смерти Франко было решено закрыть эту черную главу и начать строить новую единую Испанию. Был принят, так называемый, "закон о забвении", но оказалось, что невозможно стереть прошлое из памяти. Потомки франкистов и республиканцев продолжают сражаться со своей памятью.

Сторонники Франко утверждают, что эпоха его правления была временем консервативных реформ. Стране удалось избежать участия во Второй Мировой войне. В 50-60 годы произошел экономический подъем и приток иностранных капиталов. По воле Франко произошло возвращение монархии. Противники Франко говорят о том, какой ценой Франко добился стабильности, вспоминают о многочисленных жертвах франкизма. Родственники республиканцев, захороненных в мемориале "Долина павших" вместе с франкистами, требуют эксгумации и перезахоронения останков.

Разделение на две Испании будет существовать до тех пор, пока не будет публичного обсуждения и опять же публичной оценки событий гражданской войны и периода диктатуры Франко. В противном случае призраки прошлого будут возвращаться снова и снова.
В этой серии Владимир Познер отправится в Страну басков. Баски считаются одним из самых загадочных народов мира. Несмотря на множество самых невероятных гипотез, толком никто не знает, как возник этот древний народ, говорящий на своем древнем языке - эускара. Кто только не пытался подчинить басков и забрать их земли. Кельты, финикийцы, греки, римляне, вестготы, франки, норманы, мавры, испанцы. Но они каким-то образом выстояли, сохранили свою уникальную идентичность и культуру.

Владимир Познер побывает в частном музее национальной баскской культуры, познакомится с редким видом спорта - поднятием камней, а также научится играть в национальную игру в мяч - пелоту. Всемирно знаменитый повар Хуан-Мари Арзак откроет ведущему секреты баскской кухни и посвятит его в члены закрытого гастрономического общества чоко.

Познер попытается разобраться в особенностях баскского национального характера, непримиримость которого стала одной из причин появления ЭТА - организации, которая была создана в 1959 году для вооруженной борьбы с диктатурой Франко за национальное самоопределение. Их жертвами становились как политические деятели Испании, так и гражданское население. Ирене Вилья, одна из жертв ЭТА, расскажет о том, как она, будучи ребенком, едва выжила после терракта, а затем, вопреки всему, стала паралимпийской чемпионкой. Всю свою жизнь она активно выступала против национализма и терроризма. В октябре 2011 года ЭТА заявила, что складывает оружие. Владимир Познер обсудит с разными людьми, каким они видят дальнейшее будущее Cтраны басков. Хотят ли баски оставаться в составе Испании. И что по этому поводу думают испанцы.
В 2013 году в Испании был принят закон, признающий корриду национальным достоянием. С другой стороны с каждым годом все больше испанцев высказывается за полный запрет корриды. В этой серии Владимир Познер и Иван Ургант обсудят, что такое коррида для испанцев. Одно из воплощений испанского национального духа, искусство или бессмысленное, жестокое, кровавое развлечение?

"Если Вы готовитесь увидеть свою первую корриду и она будет единственной, пусть это случится в Ронде" - так писал Хемингуэй, страстный поклонник корриды. Владимир Познер последует совету знаменитого писателя и отправится в Ронда - в один из удивительных, так называемых, "белых городов" Андалузии, который считается родиной современной корриды. В сопровождении знаменитых тореадоров, братьев Ордоньес Познер побывает на одной из самых старых арен Испании, а также на фамильном ранчо, которое принадлежало легендарному тореадору Антонио Ордоньесу, дружившему с Хемингуэем и ставшему прототипом нескольких его романов: "Фиеста", "Смерть после полудня", "Опасное лето".

Ведущий погрузится в невероятный мир корриды, притягательный и отталкивающий одновременно, узнает об истинном отношении тореадоров к поединку с быком и к самому быку, побывает в школе тореадоров. А также выслушает точку зрения противников корриды.
В 2016 году исполнилось 400 лет со дня смерти Cервантеса. Эта дата широко отмечалась в Испании. Повсюду вспоминали писателя и его детище. Эпидемия сервантины не обошла и Парламент, где публичные чтения "Дон Кихота" состоялись в присутствии самого "автора". Знаменитый идальго был весьма недоволен тем, что происходит в Испании сегодня.

В этой серии пойдет речь о проблемах, существующих в современной Испании. А также о том, в чем сила испанцев, которые, несмотря ни на что, умеют находить выход из сложных ситуаций. Вероятно, не без помощи Сервантеса, который завещал им никогда не отказываться от мечты. А еще - относиться к себе и к жизни с иронией.
Код: Выделить всё
General
Unique ID                   : 176171661435453556037361805010987439322 (0x84896D8507371345B5CF35F5A7D0D4DA)
Complete name               : V.Poiskah.DonKihota.(01).2017.HDTVRip.720p.x264-lrn.mkv
Format                      : Matroska
Format version              : Version 4 / Version 2
File size                   : 1.38 GiB
Duration                    : 47 min 11 s
Overall bit rate            : 4 194 kb/s
Movie name                  : V.Poiskah.DonKihota.2017.HDTVRip.720p.x264-lrn
Encoded date                : UTC 2010-02-22 21:41:31
Writing application         : mkvmerge v5.9.0 ('On The Loose') built on Dec  9 2012 15:37:01
Writing library             : libebml v1.3.0 + libmatroska v1.4.0

Video
ID                          : 1
Format                      : AVC
Format/Info                 : Advanced Video Codec
Format profile              : High@L4.1
Format settings, CABAC      : Yes
Format settings, ReFrames   : 8 frames
Codec ID                    : V_MPEG4/ISO/AVC
Duration                    : 47 min 11 s
Bit rate                    : 4 000 kb/s
Width                       : 1 280 pixels
Height                      : 720 pixels
Display aspect ratio        : 16:9
Frame rate mode             : Constant
Frame rate                  : 25.000 FPS
Color space                 : YUV
Chroma subsampling          : 4:2:0
Bit depth                   : 8 bits
Scan type                   : Progressive
Bits/(Pixel*Frame)          : 0.174
Stream size                 : 1.29 GiB (93%)
Writing library             : x264 core 148 r2638 7599210
Encoding settings           : cabac=1 / ref=8 / deblock=1:-3:-3 / analyse=0x3:0x133 / me=umh / subme=9 / psy=1 / psy_rd=1.00:0.00 / mixed_ref=1 / me_range=32 / chroma_me=1 / trellis=2 / 8x8dct=1 / cqm=0 / deadzone=21,11 / fast_pskip=1 / chroma_qp_offset=-2 / threads=12 / lookahead_threads=2 / sliced_threads=0 / nr=0 / decimate=1 / interlaced=0 / bluray_compat=0 / constrained_intra=0 / bframes=8 / b_pyramid=2 / b_adapt=2 / b_bias=0 / direct=3 / weightb=1 / open_gop=0 / weightp=2 / keyint=250 / keyint_min=25 / scenecut=40 / intra_refresh=0 / rc_lookahead=50 / rc=2pass / mbtree=1 / bitrate=4000 / ratetol=1.0 / qcomp=0.60 / qpmin=0 / qpmax=69 / qpstep=4 / cplxblur=20.0 / qblur=0.5 / vbv_maxrate=62500 / vbv_bufsize=78125 / nal_hrd=none / filler=0 / ip_ratio=1.40 / aq=1:1.00
Default                     : Yes
Forced                      : No
Statistics Tags Issue       : mkvmerge v8.5.2 ('Crosses') 32bit 2017-01-05 10:18:55 / mkvmerge v5.9.0 ('On The Loose') built on Dec  9 2012 15:37:01 2010-02-22 21:41:31
FromStats_BitRate           : 4000022
FromStats_Duration          : 00:47:11.480000000
FromStats_FrameCount        : 70787
FromStats_StreamSize        : 1415747825

Audio
ID                          : 2
Format                      : AC-3
Format/Info                 : Audio Coding 3
Mode extension              : CM (complete main)
Format settings, Endianness : Big
Codec ID                    : A_AC3
Duration                    : 47 min 11 s
Bit rate mode               : Constant
Bit rate                    : 192 kb/s
Channel(s)                  : 2 channels
Channel positions           : Front: L R
Sampling rate               : 48.0 kHz
Frame rate                  : 31.250 FPS (1536 spf)
Bit depth                   : 16 bits
Compression mode            : Lossy
Stream size                 : 64.8 MiB (5%)
Language                    : Russian
Default                     : Yes
Forced                      : No
Код: Выделить всё
General
Unique ID                   : 177371608148003452691742504907503012965 (0x85708775D3851732BD1D6076701F8C65)
Complete name               : V.Poiskah.DonKihota.(02).2017.HDTVRip.720p.x264-lrn.mkv
Format                      : Matroska
Format version              : Version 4 / Version 2
File size                   : 1.40 GiB
Duration                    : 47 min 50 s
Overall bit rate            : 4 192 kb/s
Movie name                  : V.Poiskah.DonKihota.2017.HDTVRip.720p.x264-lrn
Encoded date                : UTC 2010-02-22 21:41:31
Writing application         : mkvmerge v5.9.0 ('On The Loose') built on Dec  9 2012 15:37:01
Writing library             : libebml v1.3.0 + libmatroska v1.4.0

Video
ID                          : 1
Format                      : AVC
Format/Info                 : Advanced Video Codec
Format profile              : High@L4.1
Format settings, CABAC      : Yes
Format settings, ReFrames   : 8 frames
Codec ID                    : V_MPEG4/ISO/AVC
Duration                    : 47 min 50 s
Bit rate                    : 4 000 kb/s
Width                       : 1 280 pixels
Height                      : 720 pixels
Display aspect ratio        : 16:9
Frame rate mode             : Constant
Frame rate                  : 25.000 FPS
Color space                 : YUV
Chroma subsampling          : 4:2:0
Bit depth                   : 8 bits
Scan type                   : Progressive
Bits/(Pixel*Frame)          : 0.174
Stream size                 : 1.31 GiB (93%)
Writing library             : x264 core 148 r2638 7599210
Encoding settings           : cabac=1 / ref=8 / deblock=1:-3:-3 / analyse=0x3:0x133 / me=umh / subme=9 / psy=1 / psy_rd=1.00:0.00 / mixed_ref=1 / me_range=32 / chroma_me=1 / trellis=2 / 8x8dct=1 / cqm=0 / deadzone=21,11 / fast_pskip=1 / chroma_qp_offset=-2 / threads=12 / lookahead_threads=2 / sliced_threads=0 / nr=0 / decimate=1 / interlaced=0 / bluray_compat=0 / constrained_intra=0 / bframes=8 / b_pyramid=2 / b_adapt=2 / b_bias=0 / direct=3 / weightb=1 / open_gop=0 / weightp=2 / keyint=250 / keyint_min=25 / scenecut=40 / intra_refresh=0 / rc_lookahead=50 / rc=2pass / mbtree=1 / bitrate=4000 / ratetol=1.0 / qcomp=0.60 / qpmin=0 / qpmax=69 / qpstep=4 / cplxblur=20.0 / qblur=0.5 / vbv_maxrate=62500 / vbv_bufsize=78125 / nal_hrd=none / filler=0 / ip_ratio=1.40 / aq=1:1.00
Default                     : Yes
Forced                      : No
Statistics Tags Issue       : mkvmerge v8.5.2 ('Crosses') 32bit 2017-01-05 12:42:24 / mkvmerge v5.9.0 ('On The Loose') built on Dec  9 2012 15:37:01 2010-02-22 21:41:31
FromStats_BitRate           : 3998609
FromStats_Duration          : 00:47:50.520000000
FromStats_FrameCount        : 71763
FromStats_StreamSize        : 1434761031

Audio
ID                          : 2
Format                      : AC-3
Format/Info                 : Audio Coding 3
Mode extension              : CM (complete main)
Format settings, Endianness : Big
Codec ID                    : A_AC3
Duration                    : 47 min 50 s
Bit rate mode               : Constant
Bit rate                    : 192 kb/s
Channel(s)                  : 2 channels
Channel positions           : Front: L R
Sampling rate               : 48.0 kHz
Frame rate                  : 31.250 FPS (1536 spf)
Bit depth                   : 16 bits
Compression mode            : Lossy
Stream size                 : 65.7 MiB (5%)
Language                    : Russian
Default                     : Yes
Forced                      : No
Код: Выделить всё
General
Unique ID                   : 248341590973710246880526782917811366604 (0xBAD4D9C4271B172EA2E0F834F563EACC)
Complete name               : V.Poiskah.DonKihota.(03).2017.PROPER.HDTVRip.720p.x264-lrn.mkv
Format                      : Matroska
Format version              : Version 4 / Version 2
File size                   : 1.42 GiB
Duration                    : 48 min 31 s
Overall bit rate            : 4 195 kb/s
Movie name                  : V.Poiskah.DonKihota.2017.HDTVRip.720p.x264-lrn
Encoded date                : UTC 2010-02-22 21:41:31
Writing application         : mkvmerge v5.9.0 ('On The Loose') built on Dec  9 2012 15:37:01
Writing library             : libebml v1.3.0 + libmatroska v1.4.0

Video
ID                          : 1
Format                      : AVC
Format/Info                 : Advanced Video Codec
Format profile              : High@L4.1
Format settings, CABAC      : Yes
Format settings, ReFrames   : 8 frames
Codec ID                    : V_MPEG4/ISO/AVC
Duration                    : 48 min 31 s
Bit rate                    : 4 000 kb/s
Width                       : 1 280 pixels
Height                      : 720 pixels
Display aspect ratio        : 16:9
Frame rate mode             : Constant
Frame rate                  : 25.000 FPS
Color space                 : YUV
Chroma subsampling          : 4:2:0
Bit depth                   : 8 bits
Scan type                   : Progressive
Bits/(Pixel*Frame)          : 0.174
Stream size                 : 1.33 GiB (93%)
Writing library             : x264 core 148 r2638 7599210
Encoding settings           : cabac=1 / ref=8 / deblock=1:-3:-3 / analyse=0x3:0x133 / me=umh / subme=9 / psy=1 / psy_rd=1.00:0.00 / mixed_ref=1 / me_range=32 / chroma_me=1 / trellis=2 / 8x8dct=1 / cqm=0 / deadzone=21,11 / fast_pskip=1 / chroma_qp_offset=-2 / threads=12 / lookahead_threads=2 / sliced_threads=0 / nr=0 / decimate=1 / interlaced=0 / bluray_compat=0 / constrained_intra=0 / bframes=8 / b_pyramid=2 / b_adapt=2 / b_bias=0 / direct=3 / weightb=1 / open_gop=0 / weightp=2 / keyint=250 / keyint_min=25 / scenecut=40 / intra_refresh=0 / rc_lookahead=50 / rc=2pass / mbtree=1 / bitrate=4000 / ratetol=1.0 / qcomp=0.60 / qpmin=0 / qpmax=69 / qpstep=4 / cplxblur=20.0 / qblur=0.5 / vbv_maxrate=62500 / vbv_bufsize=78125 / nal_hrd=none / filler=0 / ip_ratio=1.40 / aq=1:1.00
Default                     : Yes
Forced                      : No
Statistics Tags Issue       : mkvmerge v8.5.2 ('Crosses') 32bit 2017-01-09 21:19:51 / mkvmerge v5.9.0 ('On The Loose') built on Dec  9 2012 15:37:01 2010-02-22 21:41:31
FromStats_BitRate           : 4000845
FromStats_Duration          : 00:48:31.000000000
FromStats_FrameCount        : 72775
FromStats_StreamSize        : 1455807489

Audio
ID                          : 2
Format                      : AC-3
Format/Info                 : Audio Coding 3
Mode extension              : CM (complete main)
Format settings, Endianness : Big
Codec ID                    : A_AC3
Duration                    : 48 min 31 s
Bit rate mode               : Constant
Bit rate                    : 192 kb/s
Channel(s)                  : 2 channels
Channel positions           : Front: L R
Sampling rate               : 48.0 kHz
Frame rate                  : 31.250 FPS (1536 spf)
Bit depth                   : 16 bits
Compression mode            : Lossy
Stream size                 : 66.6 MiB (5%)
Language                    : Russian
Default                     : Yes
Forced                      : No
Код: Выделить всё
General
Unique ID                   : 225692750307676799780207908513792482557 (0xA9CAD7B4F3D99ED7ABD5808BCC715CFD)
Complete name               : V.Poiskah.DonKihota.(04).2017.HDTVRip.720p.x264-lrn.mkv
Format                      : Matroska
Format version              : Version 4 / Version 2
File size                   : 1.41 GiB
Duration                    : 48 min 8 s
Overall bit rate            : 4 194 kb/s
Movie name                  : V.Poiskah.DonKihota.2017.HDTVRip.720p.x264-lrn
Encoded date                : UTC 2010-02-22 21:41:31
Writing application         : mkvmerge v5.9.0 ('On The Loose') built on Dec  9 2012 15:37:01
Writing library             : libebml v1.3.0 + libmatroska v1.4.0

Video
ID                          : 1
Format                      : AVC
Format/Info                 : Advanced Video Codec
Format profile              : High@L4.1
Format settings, CABAC      : Yes
Format settings, ReFrames   : 8 frames
Codec ID                    : V_MPEG4/ISO/AVC
Duration                    : 48 min 8 s
Bit rate                    : 4 000 kb/s
Width                       : 1 280 pixels
Height                      : 720 pixels
Display aspect ratio        : 16:9
Frame rate mode             : Constant
Frame rate                  : 25.000 FPS
Color space                 : YUV
Chroma subsampling          : 4:2:0
Bit depth                   : 8 bits
Scan type                   : Progressive
Bits/(Pixel*Frame)          : 0.174
Stream size                 : 1.32 GiB (93%)
Writing library             : x264 core 148 r2638 7599210
Encoding settings           : cabac=1 / ref=8 / deblock=1:-3:-3 / analyse=0x3:0x133 / me=umh / subme=9 / psy=1 / psy_rd=1.00:0.00 / mixed_ref=1 / me_range=32 / chroma_me=1 / trellis=2 / 8x8dct=1 / cqm=0 / deadzone=21,11 / fast_pskip=1 / chroma_qp_offset=-2 / threads=12 / lookahead_threads=2 / sliced_threads=0 / nr=0 / decimate=1 / interlaced=0 / bluray_compat=0 / constrained_intra=0 / bframes=8 / b_pyramid=2 / b_adapt=2 / b_bias=0 / direct=3 / weightb=1 / open_gop=0 / weightp=2 / keyint=250 / keyint_min=25 / scenecut=40 / intra_refresh=0 / rc_lookahead=50 / rc=2pass / mbtree=1 / bitrate=4000 / ratetol=1.0 / qcomp=0.60 / qpmin=0 / qpmax=69 / qpstep=4 / cplxblur=20.0 / qblur=0.5 / vbv_maxrate=62500 / vbv_bufsize=78125 / nal_hrd=none / filler=0 / ip_ratio=1.40 / aq=1:1.00
Default                     : Yes
Forced                      : No
Statistics Tags Issue       : mkvmerge v8.5.2 ('Crosses') 32bit 2017-01-08 00:39:30 / mkvmerge v5.9.0 ('On The Loose') built on Dec  9 2012 15:37:01 2010-02-22 21:41:31
FromStats_BitRate           : 3999855
FromStats_Duration          : 00:48:08.760000000
FromStats_FrameCount        : 72219
FromStats_StreamSize        : 1444327779

Audio
ID                          : 2
Format                      : AC-3
Format/Info                 : Audio Coding 3
Mode extension              : CM (complete main)
Format settings, Endianness : Big
Codec ID                    : A_AC3
Duration                    : 48 min 8 s
Bit rate mode               : Constant
Bit rate                    : 192 kb/s
Channel(s)                  : 2 channels
Channel positions           : Front: L R
Sampling rate               : 48.0 kHz
Frame rate                  : 31.250 FPS (1536 spf)
Bit depth                   : 16 bits
Compression mode            : Lossy
Stream size                 : 66.1 MiB (5%)
Language                    : Russian
Default                     : Yes
Forced                      : No
Код: Выделить всё
General
Unique ID                   : 186200773745572354991591635848274956358 (0x8C14F6EEE06640FCB4E5A0B4562CD046)
Complete name               : E:\uTorrent.Temp\Temp\V.Poiskah.DonKihota.2017.HDTVRip.720p.x264-lrn\V.Poiskah.DonKihota.(05).2017.HDTVRip.720p.x264-lrn.mkv
Format                      : Matroska
Format version              : Version 4 / Version 2
File size                   : 1.41 GiB
Duration                    : 47 min 59 s
Overall bit rate            : 4 194 kb/s
Movie name                  : V.Poiskah.DonKihota.2017.HDTVRip.720p.x264-lrn
Encoded date                : UTC 2010-02-22 21:41:31
Writing application         : mkvmerge v5.9.0 ('On The Loose') built on Dec  9 2012 15:37:01
Writing library             : libebml v1.3.0 + libmatroska v1.4.0

Video
ID                          : 1
Format                      : AVC
Format/Info                 : Advanced Video Codec
Format profile              : High@L4.1
Format settings, CABAC      : Yes
Format settings, ReFrames   : 8 frames
Codec ID                    : V_MPEG4/ISO/AVC
Duration                    : 47 min 59 s
Bit rate                    : 4 000 kb/s
Width                       : 1 280 pixels
Height                      : 720 pixels
Display aspect ratio        : 16:9
Frame rate mode             : Constant
Frame rate                  : 25.000 FPS
Color space                 : YUV
Chroma subsampling          : 4:2:0
Bit depth                   : 8 bits
Scan type                   : Progressive
Bits/(Pixel*Frame)          : 0.174
Stream size                 : 1.31 GiB (93%)
Writing library             : x264 core 148 r2638 7599210
Encoding settings           : cabac=1 / ref=8 / deblock=1:-3:-3 / analyse=0x3:0x133 / me=umh / subme=9 / psy=1 / psy_rd=1.00:0.00 / mixed_ref=1 / me_range=32 / chroma_me=1 / trellis=2 / 8x8dct=1 / cqm=0 / deadzone=21,11 / fast_pskip=1 / chroma_qp_offset=-2 / threads=12 / lookahead_threads=2 / sliced_threads=0 / nr=0 / decimate=1 / interlaced=0 / bluray_compat=0 / constrained_intra=0 / bframes=8 / b_pyramid=2 / b_adapt=2 / b_bias=0 / direct=3 / weightb=1 / open_gop=0 / weightp=2 / keyint=250 / keyint_min=25 / scenecut=40 / intra_refresh=0 / rc_lookahead=50 / rc=2pass / mbtree=1 / bitrate=4000 / ratetol=1.0 / qcomp=0.60 / qpmin=0 / qpmax=69 / qpstep=4 / cplxblur=20.0 / qblur=0.5 / vbv_maxrate=62500 / vbv_bufsize=78125 / nal_hrd=none / filler=0 / ip_ratio=1.40 / aq=1:1.00
Default                     : Yes
Forced                      : No
Statistics Tags Issue       : mkvmerge v8.5.2 ('Crosses') 32bit 2017-01-10 08:49:30 / mkvmerge v5.9.0 ('On The Loose') built on Dec  9 2012 15:37:01 2010-02-22 21:41:31
FromStats_BitRate           : 3999782
FromStats_Duration          : 00:47:59.040000000
FromStats_FrameCount        : 71976
FromStats_StreamSize        : 1439441552

Audio
ID                          : 2
Format                      : AC-3
Format/Info                 : Audio Coding 3
Mode extension              : CM (complete main)
Format settings, Endianness : Big
Codec ID                    : A_AC3
Duration                    : 47 min 59 s
Bit rate mode               : Constant
Bit rate                    : 192 kb/s
Channel(s)                  : 2 channels
Channel positions           : Front: L R
Sampling rate               : 48.0 kHz
Frame rate                  : 31.250 FPS (1536 spf)
Bit depth                   : 16 bits
Compression mode            : Lossy
Stream size                 : 65.9 MiB (5%)
Language                    : Russian
Default                     : Yes
Forced                      : No
Код: Выделить всё
General
Unique ID                   : 190098675317471412728508208688591545658 (0x8F03AC5179E12039AFC6CB6BA024253A)
Complete name               : V.Poiskah.DonKihota.(06).2017.HDTVRip.720p.x264-lrn.mkv
Format                      : Matroska
Format version              : Version 4 / Version 2
File size                   : 1.40 GiB
Duration                    : 47 min 54 s
Overall bit rate            : 4 194 kb/s
Movie name                  : V.Poiskah.DonKihota.2017.HDTVRip.720p.x264-lrn
Encoded date                : UTC 2010-02-22 21:41:31
Writing application         : mkvmerge v5.9.0 ('On The Loose') built on Dec  9 2012 15:37:01
Writing library             : libebml v1.3.0 + libmatroska v1.4.0

Video
ID                          : 1
Format                      : AVC
Format/Info                 : Advanced Video Codec
Format profile              : High@L4.1
Format settings, CABAC      : Yes
Format settings, ReFrames   : 8 frames
Codec ID                    : V_MPEG4/ISO/AVC
Duration                    : 47 min 54 s
Bit rate                    : 4 000 kb/s
Width                       : 1 280 pixels
Height                      : 720 pixels
Display aspect ratio        : 16:9
Frame rate mode             : Constant
Frame rate                  : 25.000 FPS
Color space                 : YUV
Chroma subsampling          : 4:2:0
Bit depth                   : 8 bits
Scan type                   : Progressive
Bits/(Pixel*Frame)          : 0.174
Stream size                 : 1.31 GiB (93%)
Writing library             : x264 core 148 r2638 7599210
Encoding settings           : cabac=1 / ref=8 / deblock=1:-3:-3 / analyse=0x3:0x133 / me=umh / subme=9 / psy=1 / psy_rd=1.00:0.00 / mixed_ref=1 / me_range=32 / chroma_me=1 / trellis=2 / 8x8dct=1 / cqm=0 / deadzone=21,11 / fast_pskip=1 / chroma_qp_offset=-2 / threads=12 / lookahead_threads=2 / sliced_threads=0 / nr=0 / decimate=1 / interlaced=0 / bluray_compat=0 / constrained_intra=0 / bframes=8 / b_pyramid=2 / b_adapt=2 / b_bias=0 / direct=3 / weightb=1 / open_gop=0 / weightp=2 / keyint=250 / keyint_min=25 / scenecut=40 / intra_refresh=0 / rc_lookahead=50 / rc=2pass / mbtree=1 / bitrate=4000 / ratetol=1.0 / qcomp=0.60 / qpmin=0 / qpmax=69 / qpstep=4 / cplxblur=20.0 / qblur=0.5 / vbv_maxrate=62500 / vbv_bufsize=78125 / nal_hrd=none / filler=0 / ip_ratio=1.40 / aq=1:1.00
Default                     : Yes
Forced                      : No
Statistics Tags Issue       : mkvmerge v8.5.2 ('Crosses') 32bit 2017-01-10 23:34:28 / mkvmerge v5.9.0 ('On The Loose') built on Dec  9 2012 15:37:01 2010-02-22 21:41:31
FromStats_BitRate           : 4000453
FromStats_Duration          : 00:47:54.600000000
FromStats_FrameCount        : 71865
FromStats_StreamSize        : 1437462931

Audio
ID                          : 2
Format                      : AC-3
Format/Info                 : Audio Coding 3
Mode extension              : CM (complete main)
Format settings, Endianness : Big
Codec ID                    : A_AC3
Duration                    : 47 min 54 s
Bit rate mode               : Constant
Bit rate                    : 192 kb/s
Channel(s)                  : 2 channels
Channel positions           : Front: L R
Sampling rate               : 48.0 kHz
Frame rate                  : 31.250 FPS (1536 spf)
Bit depth                   : 16 bits
Compression mode            : Lossy
Stream size                 : 65.8 MiB (5%)
Language                    : Russian
Default                     : Yes
Forced                      : No
Код: Выделить всё
raw [info]: 1280x720p 1:1 @ 25/1 fps (cfr)
x264 [info]: using SAR=1/1
x264 [info]: using cpu capabilities: MMX2 SSE2Fast SSSE3 SSE4.2 AVX
x264 [info]: profile High, level 4.1
x264 [info]: frame I:706   Avg QP:15.35  size:112479
x264 [info]: frame P:20920 Avg QP:19.00  size: 38432
x264 [info]: frame B:49161 Avg QP:21.55  size: 10829
x264 [info]: consecutive B-frames:  5.3%  7.0%  8.5% 67.2%  5.6%  5.2%  0.5%  0.6%  0.1%
x264 [info]: mb I  I16..4:  8.3% 71.6% 20.2%
x264 [info]: mb P  I16..4:  2.6% 11.4%  1.4%  P16..4: 41.2% 19.1% 13.2%  0.7%  0.2%    skip:10.3%
x264 [info]: mb B  I16..4:  0.3%  1.1%  0.2%  B16..8: 36.2%  9.1%  2.2%  direct: 5.6%  skip:45.3%  L0:39.0% L1:44.2% BI:16.8%
x264 [info]: 8x8 transform intra:73.5% inter:63.5%
x264 [info]: direct mvs  spatial:97.7% temporal:2.3%
x264 [info]: coded y,uvDC,uvAC intra: 70.0% 71.6% 35.6% inter: 21.8% 20.7% 0.9%
x264 [info]: i16 v,h,dc,p: 41% 19%  8% 33%
x264 [info]: i8 v,h,dc,ddl,ddr,vr,hd,vl,hu: 13% 13% 10%  7% 11% 11% 12% 10% 13%
x264 [info]: i4 v,h,dc,ddl,ddr,vr,hd,vl,hu: 14% 14%  5%  7% 12% 12% 13% 10% 13%
x264 [info]: i8c dc,h,v,p: 41% 27% 19% 13%
x264 [info]: Weighted P-Frames: Y:3.9% UV:1.0%
x264 [info]: ref P L0: 55.3% 13.4% 14.9%  4.9%  3.9%  2.9%  2.7%  1.8%  0.3%  0.0%
x264 [info]: ref B L0: 83.4%  9.2%  3.3%  1.6%  1.2%  0.8%  0.4%
x264 [info]: ref B L1: 96.3%  3.7%
x264 [info]: kb/s:4000.02
encoded 70787 frames, 14.95 fps, 4000.02 kb/s
Код: Выделить всё
raw [info]: 1280x720p 1:1 @ 25/1 fps (cfr)
x264 [info]: using SAR=1/1
x264 [info]: using cpu capabilities: MMX2 SSE2Fast SSSE3 SSE4.2 AVX
x264 [info]: profile High, level 4.1
x264 [info]: frame I:827   Avg QP:13.33  size:151828
x264 [info]: frame P:21201 Avg QP:17.07  size: 41817
x264 [info]: frame B:49735 Avg QP:20.52  size:  8498
x264 [info]: consecutive B-frames:  5.5%  7.6%  7.9% 66.1%  4.9%  5.4%  1.1%  1.2%  0.3%
x264 [info]: mb I  I16..4:  5.9% 74.3% 19.9%
x264 [info]: mb P  I16..4:  1.5%  8.8%  1.1%  P16..4: 39.2% 21.7% 15.1%  1.0%  0.3%    skip:11.3%
x264 [info]: mb B  I16..4:  0.1%  0.6%  0.1%  B16..8: 34.7%  7.7%  1.9%  direct: 5.3%  skip:49.6%  L0:36.5% L1:43.9% BI:19.6%
x264 [info]: 8x8 transform intra:75.8% inter:54.9%
x264 [info]: direct mvs  spatial:97.5% temporal:2.5%
x264 [info]: coded y,uvDC,uvAC intra: 75.7% 84.3% 56.4% inter: 21.0% 21.9% 2.0%
x264 [info]: i16 v,h,dc,p: 38% 18%  8% 37%
x264 [info]: i8 v,h,dc,ddl,ddr,vr,hd,vl,hu: 15% 14% 11%  7% 10% 10% 11% 10% 13%
x264 [info]: i4 v,h,dc,ddl,ddr,vr,hd,vl,hu: 15% 12%  7%  8% 12% 12% 12% 10% 12%
x264 [info]: i8c dc,h,v,p: 41% 25% 21% 13%
x264 [info]: Weighted P-Frames: Y:2.4% UV:0.8%
x264 [info]: ref P L0: 60.3% 13.9% 13.6%  4.0%  2.9%  2.0%  1.9%  1.3%  0.2%  0.0%
x264 [info]: ref B L0: 87.5%  7.7%  2.3%  1.1%  0.7%  0.5%  0.3%
x264 [info]: ref B L1: 97.0%  3.0%
x264 [info]: kb/s:3998.61
encoded 71763 frames, 16.23 fps, 3998.61 kb/s
Код: Выделить всё
raw [info]: 1280x720p 1:1 @ 25/1 fps (cfr)
x264 [info]: using SAR=1/1
x264 [info]: using cpu capabilities: MMX2 SSE2Fast SSSE3 SSE4.2 AVX
x264 [info]: profile High, level 4.1
x264 [info]: frame I:782   Avg QP:15.96  size:135616
x264 [info]: frame P:21571 Avg QP:19.73  size: 39814
x264 [info]: frame B:50422 Avg QP:23.27  size:  9736
x264 [info]: consecutive B-frames:  4.9%  7.9%  9.8% 66.7%  5.7%  3.7%  0.6%  0.5%  0.2%
x264 [info]: mb I  I16..4:  6.1% 73.1% 20.8%
x264 [info]: mb P  I16..4:  2.5% 11.3%  1.6%  P16..4: 40.4% 18.7% 13.9%  0.9%  0.3%    skip:10.5%
x264 [info]: mb B  I16..4:  0.2%  1.0%  0.2%  B16..8: 34.8%  8.5%  2.2%  direct: 4.4%  skip:48.7%  L0:36.1% L1:44.2% BI:19.7%
x264 [info]: 8x8 transform intra:73.0% inter:61.0%
x264 [info]: direct mvs  spatial:97.6% temporal:2.4%
x264 [info]: coded y,uvDC,uvAC intra: 70.4% 70.4% 38.8% inter: 20.8% 20.7% 1.7%
x264 [info]: i16 v,h,dc,p: 29% 21%  8% 42%
x264 [info]: i8 v,h,dc,ddl,ddr,vr,hd,vl,hu: 13% 12%  9%  7% 11% 12% 12% 11% 13%
x264 [info]: i4 v,h,dc,ddl,ddr,vr,hd,vl,hu: 14% 12%  5%  8% 13% 13% 13% 10% 13%
x264 [info]: i8c dc,h,v,p: 43% 23% 20% 14%
x264 [info]: Weighted P-Frames: Y:3.7% UV:1.0%
x264 [info]: ref P L0: 57.7% 14.9% 13.9%  4.2%  3.2%  2.3%  2.1%  1.5%  0.2%  0.0%
x264 [info]: ref B L0: 87.2%  7.4%  2.5%  1.2%  0.8%  0.5%  0.3%
x264 [info]: ref B L1: 96.9%  3.1%
x264 [info]: kb/s:4000.84
encoded 72775 frames, 14.61 fps, 4000.84 kb/s
Код: Выделить всё
raw [info]: 1280x720p 1:1 @ 25/1 fps (cfr)
x264 [info]: using SAR=1/1
x264 [info]: using cpu capabilities: MMX2 SSE2Fast SSSE3 SSE4.2 AVX
x264 [info]: profile High, level 4.1
x264 [info]: frame I:894   Avg QP:12.77  size:107015
x264 [info]: frame P:21183 Avg QP:16.59  size: 37647
x264 [info]: frame B:50142 Avg QP:19.19  size: 10993
x264 [info]: consecutive B-frames:  5.1%  6.5%  8.8% 70.2%  5.7%  3.2%  0.2%  0.3%  0.1%
x264 [info]: mb I  I16..4:  9.4% 71.7% 19.0%
x264 [info]: mb P  I16..4:  2.7% 14.8%  1.7%  P16..4: 35.2% 20.1% 11.9%  0.7%  0.2%    skip:12.6%
x264 [info]: mb B  I16..4:  0.3%  1.5%  0.2%  B16..8: 34.1% 10.7%  2.5%  direct: 5.9%  skip:44.7%  L0:39.9% L1:44.1% BI:16.0%
x264 [info]: 8x8 transform intra:76.0% inter:62.5%
x264 [info]: direct mvs  spatial:98.7% temporal:1.3%
x264 [info]: coded y,uvDC,uvAC intra: 71.6% 78.8% 51.6% inter: 21.0% 21.6% 2.1%
x264 [info]: i16 v,h,dc,p: 39% 18%  8% 36%
x264 [info]: i8 v,h,dc,ddl,ddr,vr,hd,vl,hu: 16% 13% 11%  7% 10% 11% 10% 10% 11%
x264 [info]: i4 v,h,dc,ddl,ddr,vr,hd,vl,hu: 16% 12%  7%  8% 12% 13% 12% 10% 11%
x264 [info]: i8c dc,h,v,p: 42% 24% 20% 14%
x264 [info]: Weighted P-Frames: Y:2.5% UV:0.6%
x264 [info]: ref P L0: 57.8% 10.2% 14.9%  5.3%  4.0%  3.0%  2.6%  1.9%  0.3%  0.0%
x264 [info]: ref B L0: 84.8%  8.4%  3.1%  1.5%  1.1%  0.7%  0.4%
x264 [info]: ref B L1: 96.9%  3.1%
x264 [info]: kb/s:3999.85
encoded 72219 frames, 15.35 fps, 3999.85 kb/s
Код: Выделить всё
raw [info]: 1280x720p 1:1 @ 25/1 fps (cfr)
x264 [info]: using SAR=1/1
x264 [info]: using cpu capabilities: MMX2 SSE2Fast SSSE3 SSE4.2 AVX
x264 [info]: profile High, level 4.1
x264 [info]: frame I:679   Avg QP:14.20  size:102040
x264 [info]: frame P:20993 Avg QP:18.16  size: 35991
x264 [info]: frame B:50304 Avg QP:20.87  size: 12218
x264 [info]: consecutive B-frames:  4.8%  6.9%  8.8% 66.0%  6.5%  5.4%  0.6%  0.8%  0.2%
x264 [info]: mb I  I16..4: 11.1% 72.6% 16.3%
x264 [info]: mb P  I16..4:  2.5% 15.4%  1.7%  P16..4: 35.9% 18.4% 11.0%  0.4%  0.1%    skip:14.4%
x264 [info]: mb B  I16..4:  0.3%  1.9%  0.3%  B16..8: 31.6% 11.0%  2.6%  direct: 5.5%  skip:46.8%  L0:39.9% L1:44.5% BI:15.5%
x264 [info]: 8x8 transform intra:77.3% inter:69.1%
x264 [info]: direct mvs  spatial:99.1% temporal:0.9%
x264 [info]: coded y,uvDC,uvAC intra: 71.2% 54.8% 27.6% inter: 23.9% 18.9% 1.2%
x264 [info]: i16 v,h,dc,p: 44% 20%  7% 28%
x264 [info]: i8 v,h,dc,ddl,ddr,vr,hd,vl,hu: 15% 12% 11%  7% 11% 12% 11% 10% 12%
x264 [info]: i4 v,h,dc,ddl,ddr,vr,hd,vl,hu: 15% 11%  6%  7% 13% 13% 12% 10% 11%
x264 [info]: i8c dc,h,v,p: 52% 21% 18%  9%
x264 [info]: Weighted P-Frames: Y:6.0% UV:0.7%
x264 [info]: ref P L0: 54.0% 11.7% 14.9%  5.6%  4.5%  3.5%  3.2%  2.3%  0.4%  0.0%
x264 [info]: ref B L0: 82.6%  8.8%  3.7%  1.9%  1.5%  1.0%  0.5%
x264 [info]: ref B L1: 96.1%  3.9%
x264 [info]: kb/s:3999.78
encoded 71976 frames, 14.62 fps, 3999.78 kb/s
Код: Выделить всё
raw [info]: 1280x720p 1:1 @ 25/1 fps (cfr)
x264 [info]: using SAR=1/1
x264 [info]: using cpu capabilities: MMX2 SSE2Fast SSSE3 SSE4.2 AVX
x264 [info]: profile High, level 4.1
x264 [info]: frame I:840   Avg QP:13.67  size:122494
x264 [info]: frame P:20900 Avg QP:17.47  size: 38004
x264 [info]: frame B:50125 Avg QP:20.20  size: 10779
x264 [info]: consecutive B-frames:  4.9%  6.4%  9.1% 68.6%  5.8%  4.0%  0.5%  0.6%  0.1%
x264 [info]: mb I  I16..4:  6.4% 73.9% 19.7%
x264 [info]: mb P  I16..4:  2.3% 13.9%  1.5%  P16..4: 38.2% 20.7% 12.3%  0.6%  0.2%    skip:10.3%
x264 [info]: mb B  I16..4:  0.3%  1.3%  0.2%  B16..8: 35.3% 10.0%  2.3%  direct: 6.0%  skip:44.7%  L0:38.7% L1:43.4% BI:17.8%
x264 [info]: 8x8 transform intra:77.3% inter:62.1%
x264 [info]: direct mvs  spatial:98.6% temporal:1.4%
x264 [info]: coded y,uvDC,uvAC intra: 74.9% 76.9% 45.6% inter: 22.5% 22.4% 1.6%
x264 [info]: i16 v,h,dc,p: 34% 19%  7% 41%
x264 [info]: i8 v,h,dc,ddl,ddr,vr,hd,vl,hu: 15% 14%  9%  7% 10% 11% 11% 10% 12%
x264 [info]: i4 v,h,dc,ddl,ddr,vr,hd,vl,hu: 16% 13%  6%  7% 12% 12% 12% 10% 11%
x264 [info]: i8c dc,h,v,p: 40% 25% 21% 13%
x264 [info]: Weighted P-Frames: Y:4.0% UV:0.9%
x264 [info]: ref P L0: 57.9% 12.2% 14.4%  4.8%  3.7%  2.6%  2.4%  1.7%  0.3%  0.0%
x264 [info]: ref B L0: 85.9%  8.0%  2.8%  1.4%  0.9%  0.6%  0.3%
x264 [info]: ref B L1: 96.9%  3.1%
x264 [info]: kb/s:4000.45
encoded 71865 frames, 15.27 fps, 4000.45 kb/s

 
Не забывайте говорить Спасибо. Не уходите с раздачи!   
Торрент: Зарегистрирован [11 янв 2017, 08:36] Для скачивания .torrent
необходима регистрация
Или скачать с помощью
MediaGet
Статус:
Проверен
 
.torrent скачан: 0 раз
Хэш: 3cf3a5a0485cfa993ed7286c4d88543b9c3ae356
Размер: 8.42 ГБ (9 045 671 519 байт)
Стать Автором раздачи
 
 
Раздал: 100 ГБ
Скачал: 0 байт
Ратио: Seed.
Сообщения: 182341
Зарегистрирован: 09 апр 2015, 20:00


  • Похожие торренты
    Ответы
    Просмотры
    Последнее сообщение

Вернуться в Документальные (HD Video)

Кто сейчас на конференции

Сейчас эту тему просматривают: нет зарегистрированных пользователей и гости: 1

Ресурс не предоставляет электронные версии произведений, а занимается лишь коллекционированием и каталогизацией ссылок, присылаемых и публикуемых на форуме нашими читателями. Если вы являетесь правообладателем какого-либо представленного материала и не желаете чтобы ссылка на него находилась в нашем каталоге, свяжитесь с нами и мы незамедлительно удалим её. Файлы для обмена на трекере предоставлены пользователями сайта, и администрация не несёт ответственности за их содержание. Просьба не заливать файлы, защищенные авторскими правами, а также файлы нелегального содержания!