День "Военной тайны" [9-10] (1-й-8-й выпуски) [РЕН TB 08.01.2017] (Игорь Прокопенко) [2016-2017, Документальный цикл, военный, авторское ТВ, SATRip]

 
 Статистика раздачи 
Размер: 10.61 ГБ   |  Зарегистрирован: 11 янв 2017, 06:48   |   .torrent скачан: 0 раз
Сидеров: 16  [ 0 байт/сек ]     Личеров: 5  [ 0 байт/сек ]  
  

День "Военной тайны" [9-10] (1-й-8-й выпуски) [РЕН TB 08.01.2017] (Игорь Прокопенко) [2016-2017, Документальный цикл, военный, авторское ТВ, SATRip]

Сообщение aLaVodka » 11 янв 2017, 06:48

День "ВОЕННОЙ ТАЙНЫ" [9-10]

Год выпуска: 2016-2017
Страна: Россия
Жанр: Документальный, военный
Продолжительность: по ~20-58мин.
Руководитель и ведущий: Игорь Прокопенко
Перевод: Не требуется
Русские субтитры: нет

Описание: Марафон программы. Как европейские курорты этим летом выживали без россиян? Зачем американский спецназ потратил всё лето на никчемные тренировки, а американские политики только и делали, что весь отпуск постили и лайкали? И как миграционный коллапс довёл Европу до многоженства?...

Релиз группы:
Релиз группы:

Качество: SATRip
Формат: AVI
Видео: 720x400 (1.8:1), 25 fps, XviD ~1914 kbps, 0.27 bit/pixel
Аудио: 48 kHz, MPEG Layer 3, 2 ch, ~128 kbps avg
Общее
Полное имя : F:\Torrents\Den'_Voennoj_tajny-9_na_REN-TV_[rutracker.org]\901_DVt-Vo_vsem_vinovaty_ehti_russkie-11.09.2016.avi
Формат : AVI
Формат/Информация : Audio Video Interleave
Размер файла : 692 Мбайт
Продолжительность : 48 м.
Общий поток : 1980 Кбит/сек
Программа кодирования : VirtualDubMod 1.6.0.0 SURROUND (build 2560/release)
Библиотека кодирования : VirtualDubMod build 2560/release

Видео
Идентификатор : 0
Формат : MPEG-4 Visual
Профиль формата : Advanced Simple@L5
Параметр BVOP формата : 2
Параметр QPel формата : Нет
Параметр GMC формата : Без точки перехода
Параметр матрицы формата : Default (H.263)
Идентификатор кодека : XVID
Идентификатор кодека/Подсказка : XviD
Продолжительность : 48 м.
Битрейт : 1842 Кбит/сек
Ширина : 720 пикселей
Высота : 400 пикселей
Соотношение сторон : 16:9
Соотношение сторон в оригинале : 16:9
Частота кадров : 25,000 кадров/сек
Цветовое пространство : YUV
Субдискретизация насыщенности : 4:2:0
Битовая глубина : 8 бит
Тип развёртки : Прогрессивная
Метод сжатия : С потерями
Бит/(Пиксели*Кадры) : 0.256
Размер потока : 644 Мбайт (93%)
Библиотека кодирования : XviD 64

Аудио
Идентификатор : 1
Формат : MPEG Audio
Версия формата : Version 1
Профиль формата : Layer 3
Режим : Joint stereo
Расширение режима : MS Stereo
Идентификатор кодека : 55
Идентификатор кодека/Подсказка : MP3
Продолжительность : 48 м.
Вид битрейта : Постоянный
Битрейт : 128 Кбит/сек
Каналы : 2 канала
Частота : 48,0 КГц
Метод сжатия : С потерями
Размер потока : 44,8 Мбайт (6%)
Выравнивание : Разделение по промежуткам
Продолжительность промежутка : 40 мс. (1,00 видеокадр)
Время предзагрузки промежутка : 500 мс.
Библиотека кодирования : LAME3.99r
Настройки программы : -m j -V 4 -q 3 -lowpass 17 -b 128
Названия выпусков мои, могут быть заменены авторскими...
...
Продолжительность: 00:48:52
Имя файла: 901_DVt-Vo_vsem_vinovaty_ehti_russkie-11.09.2016.avi
...
Продолжительность: 00:14:25
Имя файла: 902_DVt-Evropa_posle_naplyva_ehmmigrantov-11.09.2016.avi
...
Продолжительность: 00:55:42
Имя файла: 903_DVt-Russkie_turisty_i_dachniki-11.09.2016.avi
...
Продолжительность: 00:52:37
Имя файла: 905_DVt-Besplatnoe_shou_ili_piar_dlja_politikov-11.09.2016.avi
...
Продолжительность: 00:52:37
Имя файла: 906_DVt-Duraki_i_dorogi-glavnye_bedy_Rossii-11.09.2016.avi
...
Продолжительность: 00:52:37
Имя файла: 907_DVt-Velikaja_pobeda_armii_SShA-11.09.2016.avi
...
Продолжительность: 00:46:36
Имя файла: 908_DVt-Kogda_rasslabljajutsja_civilizovannye_evropejcy-11.09.2016.avi
...
Продолжительность: 00:52:37
Имя файла: 909_DVt-Filosofija_izbiratelej-11.09.2016.avi
...
Продолжительность: 00:46:42
Имя файла: 910_DVt-Missija_vypolnimaja-11.09.2016.avi
...
Продолжительность: 00:45:57
Имя файла: 1001_DVt-...-08.01.2017.avi
Файл предложил SVI низкого качества, кого он есть лучше, пожалуйста, предложите.
...
Продолжительность: 00:46:00
Имя файла: 1003_DVt-...-08.01.2017.avi
...
Продолжительность: 00:46:04
Имя файла: 1004_DVt-...-08.01.2017.avi
...
Продолжительность: 00:53:29
Имя файла: 1005_DVt-...-08.01.2017.avi
...
Продолжительность: 00:47:40
Имя файла: 1006_DVt-...-08.01.2017.avi
...
Продолжительность: 00:53:29
Имя файла: 1007_DVt-...-08.01.2017.avi
...
Продолжительность: 00:47:40
Имя файла: 1008_DVt-...-08.01.2017.avi
Предыдущие выпуски 1-го и 2-го дня здесь:
Предыдущие выпуски 3-го дня здесь:

Предыдущие выпуски 4-го дня здесь:

Предыдущие выпуски 5-го дня здесь:

Предыдущие выпуски 6-го дня здесь:

Предыдущие выпуски 7-го дня здесь:

Предыдущие выпуски 8-го дня здесь:
Добавил: 1001-й выпуск."..." (эфир_08.01.2017). Пожалуйста, обновите торрент-файл.
Выпусков после 23 час. у меня нет.

На раздаче по возможности, ~20 Mb/s. > [Что от меня зависит, сделал. Остальное зависит от Вас, трекера и наших провайдеров.]
 
Не забывайте говорить Спасибо. Не уходите с раздачи!   
Торрент: Зарегистрирован [11 янв 2017, 06:48] Для скачивания .torrent
необходима регистрация
Или скачать с помощью
MediaGet
Статус:
Проверен
 
.torrent скачан: 0 раз
Хэш: ce64fcfecf1117d5e527e2fcf7d105c90855faae
Размер: 10.61 ГБ (11 395 572 656 байт)
Стать Автором раздачи
 
 
Раздал: 100 ГБ
Скачал: 0 байт
Ратио: Seed.
Сообщения: 183248
Зарегистрирован: 09 апр 2015, 20:00


  • Похожие торренты
    Ответы
    Просмотры
    Последнее сообщение

Вернуться в Фильмы и телепередачи на военную тематику

Кто сейчас на конференции

Сейчас эту тему просматривают: нет зарегистрированных пользователей и гости: 1

Ресурс не предоставляет электронные версии произведений, а занимается лишь коллекционированием и каталогизацией ссылок, присылаемых и публикуемых на форуме нашими читателями. Если вы являетесь правообладателем какого-либо представленного материала и не желаете чтобы ссылка на него находилась в нашем каталоге, свяжитесь с нами и мы незамедлительно удалим её. Файлы для обмена на трекере предоставлены пользователями сайта, и администрация не несёт ответственности за их содержание. Просьба не заливать файлы, защищенные авторскими правами, а также файлы нелегального содержания!