Покемон XYZ (19 сезон) / Pokemon XYZ The Series [TV] [1-46 из 47] [Без хардсаба] [RUS(int)] [2016, приключения, комедия, фэнтези, HDTVRip] [720p] [Американская версия]

 
 Статистика раздачи 
Размер: 21.23 ГБ   |  Зарегистрирован: 10 янв 2017, 22:33   |   .torrent скачан: 0 раз
Сидеров: 1  [ 0 байт/сек ]     Личеров: 0  [ 0 байт/сек ]  
  

Покемон XYZ (19 сезон) / Pokemon XYZ The Series [TV] [1-46 из 47] [Без хардсаба] [RUS(int)] [2016, приключения, комедия, фэнтези, HDTVRip] [720p] [Американская версия]

Сообщение aLaVodka » 10 янв 2017, 22:33

Покемон XYZ / Pokemon XYZ The Series

Страна: Япония/США
Год выпуска: 2016 г.
Жанр: приключения, комедия, фэнтези
Тип: TV
Перевод: lord666
Продолжительность: ~21 минута
Режиссер: Юяма Кунихико
Студия: OLM

Описание: Эш, Пикачу и их друзья столкнутся с самыми необычными тайнами региона Калос. У Команды Вспышка есть свои планы на легендарного покемона Зигарда. Путь Алена в поисках истоков Мегаэволюции пересекается с путешествием наших героев. А Эш и его Фрогадир стремятся достичь новых высот, что предсказывала гим-лидер Олимпия.

Доп. информация: Раздача ведется путем добавления серий
Огромное спасибо за те серии, которые просто не появлялись в инете.

Сэмпл: http://multi-up.com/1094854, https://www.sendspace.com/file/7bjkm9

Качество: HDTVRip
Тип релиза: Без хардсаба
Формат видео: MKV
Видео: H.264, 1280x720, 2591 Kbps, 23.976 fps, 8 bits
Аудио: ac3, 448 kbps, 48 kHz, 6 ch Язык Русский (в составе контейнера) ; Озвучка: одноголосая lord666
Код: Выделить всё
General
Unique ID                   : 239718115601478543833874574365460153336 (0xB458079ABD7885A7A02A9AED56AE43F8)
Complete name               : \S19\Pokemon XYZ The Series\Pokemon XYZ S19 E02 VO lord666.mkv
Format                      : Matroska
Format version              : Version 2
File size                   : 462 MiB
Duration                    : 20mn 49s
Overall bit rate            : 3 101 Kbps
Encoded date                : UTC 2016-03-13 13:26:15
Writing application         : mkvmerge v5.8.0 ('No Sleep / Pillow') built on Sep  2 2012 15:37:04
Writing library             : libebml v1.2.3 + libmatroska v1.3.0

Video
ID                          : 1
Format                      : AVC
Format/Info                 : Advanced Video Codec
Format profile              : [email protected]
Format settings, CABAC      : Yes
Format settings, ReFrames   : 9 frames
Muxing mode                 : Header stripping
Codec ID                    : V_MPEG4/ISO/AVC
Duration                    : 20mn 49s
Bit rate                    : 2 591 Kbps
Width                       : 1 280 pixels
Height                      : 720 pixels
Display aspect ratio        : 16:9
Frame rate mode             : Constant
Frame rate                  : 29.970 (30000/1001) fps
Color space                 : YUV
Chroma subsampling          : 4:2:0
Bit depth                   : 8 bits
Scan type                   : Progressive
Bits/(Pixel*Frame)          : 0.094
Stream size                 : 386 MiB (84%)
Writing library             : x264 core 148 r2665 a01e339
Encoding settings           : cabac=1 / ref=9 / deblock=1:1:1 / analyse=0x3:0x113 / me=umh / subme=8 / psy=1 / psy_rd=0.40:0.00 / mixed_ref=1 / me_range=16 / chroma_me=1 / trellis=1 / 8x8dct=1 / cqm=0 / deadzone=21,11 / fast_pskip=1 / chroma_qp_offset=-2 / threads=12 / lookahead_threads=3 / sliced_threads=0 / nr=0 / decimate=1 / interlaced=0 / bluray_compat=0 / constrained_intra=0 / bframes=5 / b_pyramid=2 / b_adapt=2 / b_bias=0 / direct=3 / weightb=1 / open_gop=0 / weightp=2 / keyint=250 / keyint_min=25 / scenecut=40 / intra_refresh=0 / rc_lookahead=50 / rc=crf / mbtree=1 / crf=18.0 / qcomp=0.60 / qpmin=0 / qpmax=69 / qpstep=4 / ip_ratio=1.40 / aq=1:0.60
Default                     : Yes
Forced                      : No

Audio
ID                          : 2
Format                      : AC-3
Format/Info                 : Audio Coding 3
Mode extension              : CM (complete main)
Format settings, Endianness : Big
Codec ID                    : A_AC3
Duration                    : 20mn 49s
Bit rate mode               : Constant
Bit rate                    : 448 Kbps
Channel(s)                  : 6 channels
Channel positions           : Front: L C R, Side: L R, LFE
Sampling rate               : 48.0 KHz
Frame rate                  : 31.250 fps (1536 spf)
Compression mode            : Lossy
Stream size                 : 66.7 MiB (14%)
Title                       : VO lord666
Language                    : Russian
Default                     : Yes
Forced                      : No
01. От А до Z
02. Любовь - проснись, Иви - берегись!
03. Гига-битва с мега-результатами
04. Огненный обряд посвящения
05. Пусть придет к тебе мой сон
06. Легенда о герое-ниндзя
07. Праздничные решения
08. Танцевальный дебют
09. Встреча в Конечной пещере
10. Клеточная связь
11. Встреча на ветру
12. Интрига на вечере танцев
13. Два путешествия встречаются
14. Взрывоопасная операция
15. Поиски воды и важные моменты
16. Состязание на выход в класс мастеров
17. Разбушевавшееся электричество
18. Уважение под замком
19. Класс мастеров идет
20. Идем к будущему в ритме танца
21. Невеста насовсем?
22. Битва на полную громкость!
23. Проверка синхронности
24. Заводить друзей и влиять на злодеев
25. Исследовательская битва с чемпионом
26. Сюрприз в битве три на три
27. Да здравствует ледяное поле битвы!
28. Разглядеть лес за деревьями
29. Настоящий ледокол
30. Алмаз неграненый
31. Великолепие гаджетов
32. Его стихия - Лига
33. Ценный опыт для всех
34. Анализ против страсти
35. Яркое соперничество
36. Вспышка чувств на Лиге Калоса
37. Финал не для слабых духом
38. Пламенное завершение
39. Башенный захват
40. Все рвется на мечты
41. Настоящее дело для настоящего героя
42. Каменная оборона Калоса
43. Еще более совершенный союз
44. Снова первая битва
45. Первый день оставшейся жизни
46. Когда нужды большинства важнее
 
Не забывайте говорить Спасибо. Не уходите с раздачи!   
Торрент: Зарегистрирован [10 янв 2017, 22:33] Для скачивания .torrent
необходима регистрация
Или скачать с помощью
MediaGet
Статус:
Проверен
 
.torrent скачан: 0 раз
Хэш: 532f0908822b1e4745745470e1f591426b2e24c9
Размер: 21.23 ГБ (22 798 439 381 байт)
Стать Автором раздачи
 
 
Раздал: 100 ГБ
Скачал: 0 байт
Ратио: Seed.
Сообщения: 175585
Зарегистрирован: 09 апр 2015, 20:00


  • Похожие торренты
    Ответы
    Просмотры
    Последнее сообщение

Вернуться в Аниме (Основной)

Кто сейчас на конференции

Сейчас эту тему просматривают: нет зарегистрированных пользователей и гости: 1

Ресурс не предоставляет электронные версии произведений, а занимается лишь коллекционированием и каталогизацией ссылок, присылаемых и публикуемых на форуме нашими читателями. Если вы являетесь правообладателем какого-либо представленного материала и не желаете чтобы ссылка на него находилась в нашем каталоге, свяжитесь с нами и мы незамедлительно удалим её. Файлы для обмена на трекере предоставлены пользователями сайта, и администрация не несёт ответственности за их содержание. Просьба не заливать файлы, защищенные авторскими правами, а также файлы нелегального содержания!