Новогоднее поздравление мэра Москвы С. С. Собянина [31.12.2011, 31.12.2014, 31.12.2016, канал ТВЦ, TVRip]

 
 Статистика раздачи 
Размер: 431.15 МБ   |  Зарегистрирован: 10 янв 2017, 09:35   |   .torrent скачан: 0 раз
Сидеров: 1  [ 0 байт/сек ]     Личеров: 0  [ 0 байт/сек ]  
  

Новогоднее поздравление мэра Москвы С. С. Собянина [31.12.2011, 31.12.2014, 31.12.2016, канал ТВЦ, TVRip]

Сообщение aLaVodka » 10 янв 2017, 09:35

Новогоднее поздравление мэра Москвы С. С. Собянина [31.12.2011, 31.12.2014, 31.12.2016, канал ТВЦ, TVRip]

Добавлено новогоднее поздравление с 2017-м годом, просьба перекачать торрент-файл

Год выпуска: 2011, 2014, 2016
Страна: Россия
Жанр: Новогоднее поздравление
Продолжительность: 00:03.18, 00:02.25, 00:02:50
Перевод: Не требуется
Русские субтитры: нет

Описание:
Новогоднее поздравление мэра Москвы С. С. Собянина

Качество: TVRip
Формат: MPG
Видео кодек: MPEG2
Аудио кодек: MP2
Видео: MPEG2 720х576 (4:3), VBR 6500-7500 kbps 25.000 fps
Аудио: MPEG2 224 kbps 48000Hz 2 Channels


31.12.2014
General
Complete name : D:\Muzlo\Torrents\Sobianin_111231.mpg
Format : MPEG-PS
File size : 154 MiB
Duration : 3mn 18s
Overall bit rate : 6 496 Kbps

Video
ID : 224 (0xE0)
Format : MPEG Video
Format version : Version 2
Format profile : [email protected]
Format settings, BVOP : Yes
Format settings, Matrix : Default
Format settings, GOP : M=3, N=12
Duration : 3mn 18s
Bit rate mode : Variable
Bit rate : 6 143 Kbps
Maximum bit rate : 9 800 Kbps
Width : 720 pixels
Height : 576 pixels
Display aspect ratio : 4:3
Frame rate : 25.000 fps
Standard : PAL
Color space : YUV
Chroma subsampling : 4:2:0
Bit depth : 8 bits
Scan type : Progressive
Compression mode : Lossy
Bits/(Pixel*Frame) : 0.592
Stream size : 145 MiB (94%)

Audio
ID : 192 (0xC0)
Format : MPEG Audio
Format version : Version 1
Format profile : Layer 2
Duration : 3mn 18s
Bit rate mode : Constant
Bit rate : 224 Kbps
Channel(s) : 2 channels
Sampling rate : 48.0 KHz
Compression mode : Lossy
Delay relative to video : -16ms
Stream size : 5.31 MiB (3%)

General
Complete name : U:\WORK\MUZLO\Torrents\Новогодние поздравления Собянин\Sobianin_141231.mpg
Format : MPEG-PS
File size : 139 MiB
Duration : 2mn 25s
Overall bit rate mode : Variable
Overall bit rate : 8 029 Kbps

Video
ID : 224 (0xE0)
Format : MPEG Video
Format version : Version 2
Format profile : [email protected]
Format settings, BVOP : No
Format settings, Matrix : Default
Format settings, GOP : Variable
Duration : 2mn 25s
Bit rate mode : Variable
Bit rate : 7 646 Kbps
Maximum bit rate : 9 800 Kbps
Width : 720 pixels
Height : 576 pixels
Display aspect ratio : 4:3
Frame rate : 25.000 fps
Standard : PAL
Color space : YUV
Chroma subsampling : 4:2:0
Bit depth : 8 bits
Scan type : Progressive
Compression mode : Lossy
Bits/(Pixel*Frame) : 0.737
Time code of first frame : 00:00:00:00
Time code source : Group of pictures header
Stream size : 133 MiB (95%)
Color primaries : BT.601 PAL
Transfer characteristics : BT.470 System B, BT.470 System G
Matrix coefficients : BT.601

Audio
ID : 192 (0xC0)
Format : MPEG Audio
Format version : Version 1
Format profile : Layer 2
Duration : 2mn 25s
Bit rate mode : Constant
Bit rate : 224 Kbps
Channel(s) : 2 channels
Sampling rate : 48.0 KHz
Compression mode : Lossy
Delay relative to video : -16ms
Stream size : 3.89 MiB (3%)

Menu
 
Не забывайте говорить Спасибо. Не уходите с раздачи!   
Торрент: Зарегистрирован [10 янв 2017, 09:35] Для скачивания .torrent
необходима регистрация
Или скачать с помощью
MediaGet
Статус:
Проверен
 
.torrent скачан: 0 раз
Хэш: ecdaedab3a4628ae0fe50a58bcbfec92b4b475b1
Размер: 431.15 МБ (452 090 116 байт)
Стать Автором раздачи
 
 
Раздал: 100 ГБ
Скачал: 0 байт
Ратио: Seed.
Сообщения: 183212
Зарегистрирован: 09 апр 2015, 20:00


  • Похожие торренты
    Ответы
    Просмотры
    Последнее сообщение

Вернуться в Внежанровая документалистика

Кто сейчас на конференции

Сейчас эту тему просматривают: нет зарегистрированных пользователей и гости: 1

Ресурс не предоставляет электронные версии произведений, а занимается лишь коллекционированием и каталогизацией ссылок, присылаемых и публикуемых на форуме нашими читателями. Если вы являетесь правообладателем какого-либо представленного материала и не желаете чтобы ссылка на него находилась в нашем каталоге, свяжитесь с нами и мы незамедлительно удалим её. Файлы для обмена на трекере предоставлены пользователями сайта, и администрация не несёт ответственности за их содержание. Просьба не заливать файлы, защищенные авторскими правами, а также файлы нелегального содержания!