ТСН / Телевізійна Служба Новин / Выпуски за январь (+9 января) [2017, Информация, публицистика, репортаж, SATRip]

 
 Статистика раздачи 
Размер: 4.25 ГБ   |  Зарегистрирован: 09 янв 2017, 23:16   |   .torrent скачан: 0 раз
Сидеров: 8  [ 0 байт/сек ]     Личеров: 2  [ 0 байт/сек ]  
  

ТСН / Телевізійна Служба Новин / Выпуски за январь (+9 января) [2017, Информация, публицистика, репортаж, SATRip]

Сообщение aLaVodka » 09 янв 2017, 23:16

ТСН / Телевізійна Служба Новин
за январь 2017 года

9 января в 22:06 добавлен выпуск за 9 января,
перекачайте торрент-файл, пожалуйста

Год выпуска: 2017
Страна: Украина
Жанр: Информационная программа
Ведущие: Алла Мазур, Наталья Мосейчук, Лидия Таран, Юлия Бориско
Язык: Украинский, русский
Описание:
Основной выпуск «ТСН» - это актуальные и оперативные новости о событиях в Украине и мире.
Вас ждут только важные и интересные факты.
Выход в эфир: на "1+1" с понедельника по субботу, в 19.30.
Продолжительность: ~ 00:50:00
---
«ТСН. Тиждень» - это актуальные комментарии и гости студии, обзор главных событий в стране и мире за прошлую неделю, острые вопросы к главным действующим лицам, мнение авторитетных экспертов и аналитические прогнозы.
Выход в эфир: на "1+1" в воскресенье, в 19.30.
Продолжительность: ~ 01:20:00
1) Выпуск за 1 января:
Теракт в Стамбуле, почтение Степана Бандеры, Новогодняя ночь в небе и другое...
- - - - -
2) Выпуск за 2 января:
Расследование стамбульского теракта, эксклюзивное интервью Джона Маккейна для ТСН, фестиваль глинтвейна в Одессе и другое...
- - - - -
3) Выпуск за 3 января:
"1+1" и до сих пор без лицензии, в Чехии эксгумировали останки поэта Александра Олеся, обменять валюту станет на 2 процента меньше и другое...
- - - - -
4) Выпуск за 4 января:
Шторм на Закарпатье, Нацсовет в третий раз отказала в лицензии "1+1", военные контрактники через два года смогут освободиться и другое...
- - - - -
5) Выпуск за 5 января:
Лицензия "1+1", Фестиваль кутьи, взрыв в Турции и другое...
- - - - -
6) Выпуск за 6 января:
Первые жертвы переохлаждения, НАТО готовится к российской агрессии, празднование Рождества в столице и другое...
- - - - -
7) Выпуск за 7 января:
Обвинения Путина в заказе хакерской атаки, пожар в Одессе на Сочельник, благотворительный рождественский обед для бездомных и другое...
- - - - -
8) Выпуск за 8 января:
Погодные аномалии, ситуация на фронте, теракт в Иерусалиме и другое...
- - - - -
9) Выпуск за 9 января:
Новый теракт в Египте, рекордный урожай "Золотых глобусов", ситуация на автодорогах Украины и другое...
- - - - -

Качество: SATRip
Формат: AVI
Видео кодек: XviD _ Аудио кодек: MP3
Видео: 720x544 (4:3), 25 fps, XviD build 50, 1400 kbps avg, 0.143 bit/pixel
Аудио: 48.0 kHz, MPEG Layer 3, 2 ch, 192.00 kbps
Код: Выделить всё
General
Complete name                            : J:\Мои раздачи\ТСН\TSN_1+1.(2017_01)\[2017-01-01 19-30] ТСН.avi
Format                                   : AVI
Format/Info                              : Audio Video Interleave
File size                                : 394 MiB
Duration                                 : 34mn 24s
Overall bit rate                         : 1 600 Kbps

Video
ID                                       : 0
Format                                   : MPEG-4 Visual
Format profile                           : Advanced Simple@L5
Format settings, BVOP                    : 2
Format settings, QPel                    : No
Format settings, GMC                     : No warppoints
Format settings, Matrix                  : Default (H.263)
Codec ID                                 : XVID
Codec ID/Hint                            : XviD
Duration                                 : 34mn 24s
Bit rate                                 : 1 399 Kbps
Width                                    : 720 pixels
Height                                   : 544 pixels
Display aspect ratio                     : 4:3
Frame rate                               : 25.000 fps
Color space                              : YUV
Chroma subsampling                       : 4:2:0
Bit depth                                : 8 bits
Scan type                                : Progressive
Compression mode                         : Lossy
Bits/(Pixel*Frame)                       : 0.143
Stream size                              : 344 MiB (87%)
Writing library                          : XviD 64

Audio
ID                                       : 1
Format                                   : MPEG Audio
Format version                           : Version 1
Format profile                           : Layer 3
Mode                                     : Joint stereo
Mode extension                           : MS Stereo
Codec ID                                 : 55
Codec ID/Hint                            : MP3
Duration                                 : 34mn 24s
Bit rate mode                            : Constant
Bit rate                                 : 192 Kbps
Channel(s)                               : 2 channels
Sampling rate                            : 48.0 KHz
Compression mode                         : Lossy
Stream size                              : 47.3 MiB (12%)
Alignment                                : Split accross interleaves
Interleave, duration                     : 40 ms (1.00 video frame)
Interleave, preload duration             : 500 ms

При каждом добавлении создаётся новый торрент. Чтобы начать докачку нового выпуска, пользователям необходимо сделать следующее:
● остановить скачивание;
● удалить старый торрент у себя из клиента (старые выпуски удалять не надо);
● скачать новый торрент и запустить его у себя в клиенте вместо старого, при этом указать клиенту путь в старую папку куда и должно происходить скачивание новых выпусков;
● ваш клиент при запуске должен произвести хеширование (проверку) старой папки (если не производит сам - помогите ему сделать это), и будет докачивать только те выпуски, которых у вас ещё нет. Старые выпуски при этом не удаляются, а продолжают раздаваться!
● Eсли вы уже удалили старые выпуски, то предотвратить повторную закачку старых выпусков можно, отжав галочку в соответсвующих местах при запуске нового торрента.
При закачке сериалов или видео-сборников рекомендую такую схему:
выставляем приоритет первого выпуска Высокий, следующих 1-2-х выпусков - Нормальный, следующих 1-2-х выпусков - Низкий, приоритет остальных пока ставим - Не загружать (пропущен).
По мере выкачки первых выпусков меняем приоритеты последующих. В итоге довольно скоро начинаем смотреть первые выпуски, а остальные пока качаются.

Украинские политические ток-шоу в прямом эфире:






---
Российские политические ток-шоу в прямом эфире:

---
Если на раздаче долгое время нет раздающих - пишите мне в личку
 
Не забывайте говорить Спасибо. Не уходите с раздачи!   
Торрент: Зарегистрирован [09 янв 2017, 23:16] Для скачивания .torrent
необходима регистрация
Или скачать с помощью
MediaGet
Статус:
Проверен
 
.torrent скачан: 0 раз
Хэш: ab7f6d5b6d1b2235845131e0be2f21757e88cd55
Размер: 4.25 ГБ (4 568 119 628 байт)
Стать Автором раздачи
 
 
Раздал: 100 ГБ
Скачал: 0 байт
Ратио: Seed.
Сообщения: 187293
Зарегистрирован: 09 апр 2015, 20:00


  • Похожие торренты
    Ответы
    Просмотры
    Последнее сообщение

Вернуться в Информационно-аналитические и общественно-политические передачи

Кто сейчас на конференции

Сейчас эту тему просматривают: нет зарегистрированных пользователей и гости: 1

Ресурс не предоставляет электронные версии произведений, а занимается лишь коллекционированием и каталогизацией ссылок, присылаемых и публикуемых на форуме нашими читателями. Если вы являетесь правообладателем какого-либо представленного материала и не желаете чтобы ссылка на него находилась в нашем каталоге, свяжитесь с нами и мы незамедлительно удалим её. Файлы для обмена на трекере предоставлены пользователями сайта, и администрация не несёт ответственности за их содержание. Просьба не заливать файлы, защищенные авторскими правами, а также файлы нелегального содержания!