Подробности. Выпуски за январь (+8 января) [2017, информационная программа, SATRip]

 
 Статистика раздачи 
Размер: 1.79 ГБ   |  Зарегистрирован: 08 янв 2017, 23:01   |   .torrent скачан: 0 раз
Сидеров: 1  [ 0 байт/сек ]     Личеров: 0  [ 0 байт/сек ]  
  

Подробности. Выпуски за январь (+8 января) [2017, информационная программа, SATRip]

Сообщение aLaVodka » 08 янв 2017, 23:01

Информационная программа "Подробности"
за январь 2017 года

8 января в 21:50 добавлен выпуск за 8 января,
перекачайте торрент-файл, пожалуйста

Год выпуска: 2017
Страна: Украина
Жанр: информационная программа
Продолжительность: 7x45 минут
Ведущие: Наталья Белышева, Татьяна Будь, Алексей Лихман, Екатерина Лысенко
Язык: русский, украинский
Описание:
"Подробности". Самое известное в Украине имя новостей - главная информационная программа страны. "Подробности" - это объективность, эксклюзивность и качество подачи новостей. Это все самое интересное в Украине и на планете: политика, экономика, культура и спорт, происшествия и светская хроника. "Подробности" - это десятки репортеров в городах Украины и постоянно действующие корпункты в США, Великобритании, Германии и России. Это специальные корреспонденты, готовые немедленно отправиться в любую точку мира и выйти в прямой эфир. "Подробности" - это лучшая новостная команда страны.
Выход в эфир: На телеканалах "Iнтер" (УТ-3) и "Iнтер+" с понедельника по субботу (основной выпуск) и в воскресенье в 20.00.
Доп. информация: Программа на русском языке, но украинская речь присутствует. Время в списке выпусков указано киевское.
1. 1 января 2017 года (20:00).
2. 2 января 2017 года (20:00).
3. 3 января 2017 года (20:00).
4. 4 января 2017 года (20:00).
5. 5 января 2017 года (20:00).
6. 6 января 2017 года (20:00).
7. 7 января 2017 года (20:00).
8. 8 января 2017 года (20:00).

Качество: SATRip
Формат: AVI
Видео кодек: XviD _ Аудио кодек: MP3
Видео: Xvid 720x400 (16:9) ~896kbps 25fps
Аудио: MP3 128kbps 48kHz 1ch
Код: Выделить всё
General
Complete name                            : J:\Мои раздачи\Подробности\Подробности. Январь 2017\[2017-01-01 20-00] Подробности.avi
Format                                   : AVI
Format/Info                              : Audio Video Interleave
File size                                : 230 MiB
Duration                                 : 31mn 7s
Overall bit rate                         : 1 033 Kbps

Video
ID                                       : 0
Format                                   : MPEG-4 Visual
Format profile                           : Advanced [email protected]
Format settings, BVOP                    : 2
Format settings, QPel                    : No
Format settings, GMC                     : No warppoints
Format settings, Matrix                  : Default (H.263)
Codec ID                                 : XVID
Codec ID/Hint                            : XviD
Duration                                 : 31mn 7s
Bit rate                                 : 895 Kbps
Width                                    : 720 pixels
Height                                   : 400 pixels
Display aspect ratio                     : 16:9
Frame rate                               : 25.000 fps
Color space                              : YUV
Chroma subsampling                       : 4:2:0
Bit depth                                : 8 bits
Scan type                                : Progressive
Compression mode                         : Lossy
Bits/(Pixel*Frame)                       : 0.124
Stream size                              : 199 MiB (87%)
Writing library                          : XviD 64

Audio
ID                                       : 1
Format                                   : MPEG Audio
Format version                           : Version 1
Format profile                           : Layer 3
Codec ID                                 : 55
Codec ID/Hint                            : MP3
Duration                                 : 31mn 7s
Bit rate mode                            : Constant
Bit rate                                 : 128 Kbps
Channel(s)                               : 1 channel
Sampling rate                            : 48.0 KHz
Compression mode                         : Lossy
Stream size                              : 28.5 MiB (12%)
Alignment                                : Split accross interleaves
Interleave, duration                     : 40 ms (1.00 video frame)
Interleave, preload duration             : 500 ms
Writing library                          : LAME3.98.2
Внимание! Раздача ведётся путём добавления новых выпусков; при каждом добавлении создаётся новый торрент. Чтобы начать докачку нового выпуска, пользователям необходимо сделать следующее:
(1) остановить скачивание,
(2) удалить старый торрент у себя из клиента (старые серии удалять не надо),
(3) скачать новый торрент и запустить его у себя в клиенте вместо старого, при этом указать клиенту путь в старую папку куда и должно происходить скачивание новых выпусков.

Ваш клиент при этом должен произвести хеширование (проверку) старой папки (если не производит сам - помогите ему сделать это). В результате он будет докачивать только те выпуски, которых у Вас ещё нет. Старые выпуски при этом не удаляются, а продолжают раздаваться!

Eсли Вы уже удалили старые выпуски, то предотвратить их повторную закачку можно, сняв галочки в соответствующих местах при запуске нового торрента. По возможности, желательно не удалять старые выпуски как можно дольше, чтобы релизёр не только продолжал раздавать старые выпуски, но и смог сконцентрироваться на новых.
 
Не забывайте говорить Спасибо. Не уходите с раздачи!   
Торрент: Зарегистрирован [08 янв 2017, 23:01] Для скачивания .torrent
необходима регистрация
Или скачать с помощью
MediaGet
Статус:
Проверен
 
.torrent скачан: 0 раз
Хэш: ae4f366c4e7032441197df6fa02545fb5eb7977b
Размер: 1.79 ГБ (1 922 344 954 байт)
Стать Автором раздачи
 
 
Раздал: 100 ГБ
Скачал: 0 байт
Ратио: Seed.
Сообщения: 174146
Зарегистрирован: 09 апр 2015, 20:00


  • Похожие торренты
    Ответы
    Просмотры
    Последнее сообщение

Вернуться в Информационно-аналитические и общественно-политические передачи

Кто сейчас на конференции

Сейчас эту тему просматривают: нет зарегистрированных пользователей и гости: 1

Ресурс не предоставляет электронные версии произведений, а занимается лишь коллекционированием и каталогизацией ссылок, присылаемых и публикуемых на форуме нашими читателями. Если вы являетесь правообладателем какого-либо представленного материала и не желаете чтобы ссылка на него находилась в нашем каталоге, свяжитесь с нами и мы незамедлительно удалим её. Файлы для обмена на трекере предоставлены пользователями сайта, и администрация не несёт ответственности за их содержание. Просьба не заливать файлы, защищенные авторскими правами, а также файлы нелегального содержания!