Духовные размышления с Артемием Владимировым (Союз ТВ) [С 2011г., религиозная телепрограмма, SATRip]

 
 Статистика раздачи 
Размер: 26.48 ГБ   |  Зарегистрирован: 07 янв 2017, 16:43   |   .torrent скачан: 0 раз
Сидеров: 1  [ 0 байт/сек ]     Личеров: 0  [ 0 байт/сек ]  
  

Духовные размышления с Артемием Владимировым (Союз ТВ) [С 2011г., религиозная телепрограмма, SATRip]

Сообщение aLaVodka » 07 янв 2017, 16:43

Духовные размышления с Артемием Владимировым

Год выпуска: С 2011
Страна: Россия
Жанр: религиозная телепрограмма
Продолжительность: 256х15 минут
Перевод: Не требуется
Русские субтитры: нет
Режиссер: Союз ТВ

Описание: Цикл передач посвящённых молитве.
Ведущий: протоиерей Артемий Владимиров, настоятель храма Всех Святых (бывший Ново-Алексеевский женский монастырь) г. Москвы.
Сэмпл: http://multi-up.com/986347
Эфир: чт. 06:00, пт. 21:30, вc. 23:15 (московское время).

Качество : SATRip
Формат: AVI
Видео кодек: XviD
Аудио кодек: MP3
Видео: 720x480 (1.50:1), 25 fps, XviD build 46 ~1200 kbps avg, 0.14 bit/pixel
Аудио: 44.100 kHz, MPEG Layer 3, 2 ch, ~128.00 kbps avg

Спасибо всем, кто остаётся на раздаче!

Если есть желающие взять раздачу на себя, пишите в ЛС.
Внимание! Раздача ведётся путём добавления новых выпусков; при каждом добавлении создаётся новый торрент. Чтобы начать докачку нового выпуска, пользователям необходимо сделать следующее:
(1) остановить скачивание,
(2) удалить старый торрент у себя из клиента (старые серии удалять не надо),
(3) скачать новый торрент и запустить его у себя в клиенте вместо старого, при этом указать клиенту путь в старую папку куда и должно происходить скачивание новых выпусков.

Ваш клиент при этом должен произвести хеширование (проверку) старой папки (если не производит сам - помогите ему сделать это). В результате он будет докачивать только те выпуски, которых у Вас ещё нет. Старые выпуски при этом не удаляются, а продолжают раздаваться!

Eсли Вы уже удалили старые выпуски, то предотвратить их повторную закачку можно, сняв галочки в соответствующих местах при запуске нового торрента. По возможности, желательно не удалять старые выпуски как можно дольше, чтобы релизёр не только продолжал раздавать старые выпуски, но и смог сконцентрироваться на новых.
General
Complete name: H:\Богословие\Современность (XX-XXIвв.)\Видео\Протоиерей Артемий Владимиров\Духовные размышления с Артемием Владимировым\001.Duhovnye_razmyshleniya_s_Artemiem_Vladimirovym(07.01.2011).avi
Format: AVI
Format/Info: Audio Video Interleave
File size: 132 MiB
Duration: 13mn 43s
Overall bit rate: 1 342 Kbps
Writing application: Lavf51.12.1

Video
ID: 0
Format: xvid
Codec ID: xvid
Duration: 13mn 43s
Bit rate: 1 201 Kbps
Width: 720 pixels
Height: 480 pixels
Display aspect ratio: 3:2
Frame rate: 25.000 fps
Standard: NTSC
Bits/(Pixel*Frame): 0.139
Stream size: 118 MiB (90%)

Audio
ID: 1
Format: MPEG Audio
Format version: Version 1
Format profile: Layer 3
Mode: Joint stereo
Mode extension: MS Stereo
Codec ID: 55
Codec ID/Hint: MP3
Duration: 13mn 43s
Bit rate mode: Constant
Bit rate: 128 Kbps
Channel count: 2 channels
Sampling rate: 44.1 KHz
Compression mode: Lossy
Stream size: 12.6 MiB (10%)
Alignment: Aligned on interleaves
Interleave, duration: 26 ms (0.65 video frame)
Торрент обновлен! Добавлен выпуск от 31 декабря.
 
Не забывайте говорить Спасибо. Не уходите с раздачи!   
Торрент: Зарегистрирован [07 янв 2017, 16:43] Для скачивания .torrent
необходима регистрация
Или скачать с помощью
MediaGet
Статус:
Проверен
 
.torrent скачан: 0 раз
Хэш: 41cd7b358ddac2f36017cf5cea835fbb9d30e3c3
Размер: 26.48 ГБ (28 436 084 062 байт)
Стать Автором раздачи
 
 
Раздал: 100 ГБ
Скачал: 0 байт
Ратио: Seed.
Сообщения: 188762
Зарегистрирован: 09 апр 2015, 20:00


  • Похожие торренты
    Ответы
    Просмотры
    Последнее сообщение

Вернуться в Христианство (видео)

Ресурс не предоставляет электронные версии произведений, а занимается лишь коллекционированием и каталогизацией ссылок, присылаемых и публикуемых на форуме нашими читателями. Если вы являетесь правообладателем какого-либо представленного материала и не желаете чтобы ссылка на него находилась в нашем каталоге, свяжитесь с нами и мы незамедлительно удалим её. Файлы для обмена на трекере предоставлены пользователями сайта, и администрация не несёт ответственности за их содержание. Просьба не заливать файлы, защищенные авторскими правами, а также файлы нелегального содержания!
cron