Неизвестная экспедиция / Expedition unknown (26 выпускoв) (Ник Трамонтано / Nick Tramontano) [2015-2016, Документальный цикл, приключения, HDTV 1080i, RU, EN]

 
 Статистика раздачи 
Размер: 72.18 ГБ   |  Зарегистрирован: 07 янв 2017, 14:56   |   .torrent скачан: 0 раз
Сидеров: 1  [ 0 байт/сек ]     Личеров: 0  [ 0 байт/сек ]  
  

Неизвестная экспедиция / Expedition unknown (26 выпускoв) (Ник Трамонтано / Nick Tramontano) [2015-2016, Документальный цикл, приключения, HDTV 1080i, RU, EN]

Сообщение aLaVodka » 07 янв 2017, 14:56

Неизвестная экспедиция / Expedition unknown

Год выпуска: 2015-2016
Страна: США
Студия: Ping Pong Productions
Жанр: Документальный цикл, приключения
Продолжительность: 00:41:56
Перевод: Профессиональный (двухголосый закадровый)
Русские субтитры: нет
релиз: dean10

Режиссер: Ник Трамонтано / Nick Tramontano

Описание:

Археолог и исследователь паранормальных явлений Джош Гейтс охотится по всему миру за спрятанными сокровищами и потерянными артефактами, ищет свидетельства существования реального короля Артура и едва избегает смерти при спуске в подземные пещеры. Джош восстанавливает историю легендарного Робин Гуда, исследуя туннели, по которым тот сбежал из заточения, а затем едет в Восточную Европу, чтобы изучить легенды о вампирах. Он также обыскивает океанское дно у Каймановых островов и берегов Северной Каролины в поисках сокровищ легендарного пирата Черной Бороды. Не пропустите исследование величайших легенд в истории!

07.01.2017 _ добавил:
Сезон неизвестен: Part 1 - Поиски снежного человека. Возвращение снежного человека,

перезаливаем
Сезон 1:
1-01 - Амелия Эрхарт
1-02 - Храм Судьбы
1-03 - Восьмое чудо света
1-04 - Легенда о Джесси Джеймсе
1-05 - Золотой город
1-06 - Солнечный камень викингов
1-07 - Пропавшее золото капитана Моргана
1-08 - Зашифрованное золото
1-09 - Апокалипсис майя
1-10 - Секреты Наска
1-11 - Самурайский меч силы
1-12 - Проклятие золотого колокола
Сезон 2:
2-01 - Поиск короля Артура
2-02 - Могила Чингисхана
2-03 - Золото Черной Бороды
2-04 - Охота на вампиров
2-05 - Настоящий Робин Гуд
2-07 - Поиск сокровищ Фенна
2-11 - Японская Атлантида
2-12 - Животворящий крест Христов
2-14 - Сердце султана
2-15 - Золотые сокровища Африки
2-17 - Затерянный город в пустыне Калахари
2-18 - Золото Ямаситы
2-19 - Колумб: герой или лжец?

Сезон неизвестен:
Part 1 - Поиски снежного человека. Возвращение снежного человека
Сэмпл: http://multi-up.com/1102664

Тип релиза: HDTV 1080i
Контейнер: TS

Видео: AVC, 1920x1080 (16:9), 25 fps, 8 910 Kbps
Аудио#1: Русский, MP2, 2 ch, 48 kHz, 192 kbps
Аудио#2: English, MP2, 2 ch, 48 kHz, 192 kbps
Код: Выделить всё
General
ID                                       : 1 (0x1)
Complete name                            : X:\Неизвестная экспедиция_HDTV 1080i_RU_EN\Амелия Эрхарт.ts
Format                                   : MPEG-TS
File size                                : 2.87 GiB
Duration                                 : 41mn 56s
Overall bit rate mode                    : Variable
Overall bit rate                         : 9 781 Kbps

Video
ID                                       : 306 (0x132)
Menu ID                                  : 26006 (0x6596)
Format                                   : AVC
Format/Info                              : Advanced Video Codec
Format profile                           : High@L4
Format settings, CABAC                   : Yes
Format settings, ReFrames                : 4 frames
Codec ID                                 : 27
Duration                                 : 41mn 57s
Bit rate                                 : 8 910 Kbps
Width                                    : 1 920 pixels
Height                                   : 1 080 pixels
Display aspect ratio                     : 16:9
Frame rate                               : 25.000 fps
Standard                                 : Component
Color space                              : YUV
Chroma subsampling                       : 4:2:0
Bit depth                                : 8 bits
Scan type                                : Interlaced
Scan type, store method                  : Separated fields
Scan order                               : Top Field First
Bits/(Pixel*Frame)                       : 0.172
Stream size                              : 2.61 GiB (91%)
Color range                              : Limited
Color primaries                          : BT.709
Transfer characteristics                 : BT.709
Matrix coefficients                      : BT.709

Audio #1
ID                                       : 406 (0x196)
Menu ID                                  : 26006 (0x6596)
Format                                   : MPEG Audio
Format version                           : Version 1
Format profile                           : Layer 2
Codec ID                                 : 3
Duration                                 : 41mn 57s
Bit rate mode                            : Constant
Bit rate                                 : 192 Kbps
Channel(s)                               : 2 channels
Sampling rate                            : 48.0 KHz
Compression mode                         : Lossy
Delay relative to video                  : -120ms
Stream size                              : 57.6 MiB (2%)
Language                                 : Russian

Audio #2
ID                                       : 426 (0x1AA)
Menu ID                                  : 26006 (0x6596)
Format                                   : MPEG Audio
Format version                           : Version 1
Format profile                           : Layer 2
Codec ID                                 : 3
Duration                                 : 41mn 57s
Bit rate mode                            : Constant
Bit rate                                 : 192 Kbps
Channel(s)                               : 2 channels
Sampling rate                            : 48.0 KHz
Compression mode                         : Lossy
Delay relative to video                  : -120ms
Stream size                              : 57.6 MiB (2%)
Language                                 : English
 
Не забывайте говорить Спасибо. Не уходите с раздачи!   
Торрент: Зарегистрирован [07 янв 2017, 14:56] Для скачивания .torrent
необходима регистрация
Или скачать с помощью
MediaGet
Статус:
Проверен
 
.torrent скачан: 0 раз
Хэш: 12dd0a5c895b69f9d547eebbe9df9c3f3466bd70
Размер: 72.18 ГБ (77 502 945 292 байт)
Стать Автором раздачи
 
 
Раздал: 100 ГБ
Скачал: 0 байт
Ратио: Seed.
Сообщения: 189167
Зарегистрирован: 09 апр 2015, 20:00


  • Похожие торренты
    Ответы
    Просмотры
    Последнее сообщение

Вернуться в Путешествия и туризм (HD Video)

Ресурс не предоставляет электронные версии произведений, а занимается лишь коллекционированием и каталогизацией ссылок, присылаемых и публикуемых на форуме нашими читателями. Если вы являетесь правообладателем какого-либо представленного материала и не желаете чтобы ссылка на него находилась в нашем каталоге, свяжитесь с нами и мы незамедлительно удалим её. Файлы для обмена на трекере предоставлены пользователями сайта, и администрация не несёт ответственности за их содержание. Просьба не заливать файлы, защищенные авторскими правами, а также файлы нелегального содержания!
cron