Добыча / The Prey (Эдвин Скотт Браун / Edwin Scott Brown) [1984, США, ужасы, слэшер, DVDRip] VO (Sanchez)

Фильмы категории "Б" / малобюджетные фильмы эксплуатационного кино / киномусор
 
 Статистика раздачи 
Размер: 1.37 ГБ   |  Зарегистрирован: 07 янв 2017, 14:55   |   .torrent скачан: 0 раз
Сидеров: 2  [ 0 байт/сек ]     Личеров: 1  [ 0 байт/сек ]  
  

Добыча / The Prey (Эдвин Скотт Браун / Edwin Scott Brown) [1984, США, ужасы, слэшер, DVDRip] VO (Sanchez)

Сообщение aLaVodka » 07 янв 2017, 14:55

Добыча / The Prey

Страна: США
Студия: Essex Productions (III)
Жанр: ужасы, слэшер
Год выпуска: 1984
Продолжительность: 01:19:49
Перевод: Одноголосый закадровый Sanchez
Cубтитры: нет
Оригинальная аудиодорожка: нет
Режиссер: Эдвин Скотт Браун / Edwin Scott Brown
В ролях: Дебби Тхуресон, Стив Бонд, Лори Летин, Роберт Уолд, Гэйл Гэнс, Филипп Вэнкус, Джексон Боствик, Джеки Кугэн и др.
Описание: В 1948 году в лесах Норт Пойнт случился сильный пожар. Выгорело много деревьев, погибли люди. Но кое-кто остался в живых после этой страшной трагедии. Этот кто-то, обидевшись на весь свет, остался жить в лесу и начал охотиться на незадачливых отдыхающих. Спустя какое-то время, шестеро молодых туристов отправились на отдых в эти леса, не подозревая о том, с чем им предстоит столкнуться там...

Доп.информация:

Фильм является довольно раритетным
Сэмпл: http://sendfile.su/1292626
Качество видео: DVDRip
Формат видео: AVI
Видео: 640x480 (1.33:1), 23,976 fps, XviD MPEG4 ~2260 kbps avg, 0,3 bits/(pixel*frame)
Аудио: 48 kHz, AC3 Dolby Digital, 2/0 (L,R) ch, ~192.00 kbps avg
General
Complete name : F:\FILM\TORRENT\The Prey (1984).avi
Format : AVI
Format/Info : Audio Video Interleave
File size : 1.37 GiB
Duration : 1h 19mn
Overall bit rate : 2 461 Kbps
Writing application : VirtualDubMod 1.5.10.2 (build 2542/release)
Writing library : VirtualDubMod build 2542/release

Video
ID : 0
Format : MPEG-4 Visual
Format profile : Advanced [email protected]
Format settings, BVOP : 1
Format settings, QPel : No
Format settings, GMC : No warppoints
Format settings, Matrix : Custom
Codec ID : XVID
Codec ID/Hint : XviD
Duration : 1h 19mn
Bit rate : 2 260 Kbps
Width : 640 pixels
Height : 480 pixels
Display aspect ratio : 4:3
Frame rate : 23.976 fps
Color space : YUV
Chroma subsampling : 4:2:0
Bit depth : 8 bits
Scan type : Progressive
Compression mode : Lossy
Bits/(Pixel*Frame) : 0.307
Stream size : 1.26 GiB (92%)
Writing library : XviD 1.2.1 (UTC 2008-12-04)

Audio
ID : 1
Format : AC-3
Format/Info : Audio Coding 3
Mode extension : CM (complete main)
Format settings, Endianness : Big
Codec ID : 2000
Duration : 1h 19mn
Bit rate mode : Constant
Bit rate : 192 Kbps
Channel(s) : 2 channels
Channel positions : Front: L R
Sampling rate : 48.0 KHz
Compression mode : Lossy
Stream size : 110 MiB (8%)
Alignment : Split accross interleaves
Interleave, duration : 42 ms (1.00 video frame)
Interleave, preload duration : 500 ms
Торрент-файл перезалит 07.01.2017
 
Не забывайте говорить Спасибо. Не уходите с раздачи!   
Торрент: Зарегистрирован [07 янв 2017, 14:55] Для скачивания .torrent
необходима регистрация
Или скачать с помощью
MediaGet
Статус:
Проверен
 
.torrent скачан: 0 раз
Хэш: 03b91a7e4d8ada1fa77686a24639ce6ad5d2fa25
Размер: 1.37 ГБ (1 473 191 936 байт)
Стать Автором раздачи
 
 
Раздал: 100 ГБ
Скачал: 0 байт
Ратио: Seed.
Сообщения: 183215
Зарегистрирован: 09 апр 2015, 20:00


  • Похожие торренты
    Ответы
    Просмотры
    Последнее сообщение

Вернуться в Грайндхаус

Кто сейчас на конференции

Сейчас эту тему просматривают: нет зарегистрированных пользователей и гости: 1

Ресурс не предоставляет электронные версии произведений, а занимается лишь коллекционированием и каталогизацией ссылок, присылаемых и публикуемых на форуме нашими читателями. Если вы являетесь правообладателем какого-либо представленного материала и не желаете чтобы ссылка на него находилась в нашем каталоге, свяжитесь с нами и мы незамедлительно удалим её. Файлы для обмена на трекере предоставлены пользователями сайта, и администрация не несёт ответственности за их содержание. Просьба не заливать файлы, защищенные авторскими правами, а также файлы нелегального содержания!