Новости. Январь 2017 года (UA|TV) [2017, информационная программа, SATRip] 5 выпусков

 
 Статистика раздачи 
Размер: 570.52 МБ   |  Зарегистрирован: 07 янв 2017, 13:22   |   .torrent скачан: 0 раз
Сидеров: 1  [ 0 байт/сек ]     Личеров: 0  [ 0 байт/сек ]  
  

Новости. Январь 2017 года (UA|TV) [2017, информационная программа, SATRip] 5 выпусков

Сообщение aLaVodka » 07 янв 2017, 13:22

Новости. Январь 2017 года

Дата/Год выпуска: 2017
Страна: Украина
Жанр: информационная программа
Продолжительность: 5x15 минут
Перевод: Не требуется
Русские субтитры: нет

Оригинальная аудиодорожка: русский
Ведущие: Сергей Петренко и Дарья Вершиленко
Телеканал: Мультимедийная платформа иновещания - UA|TVОписание: UA|TV адресовано широкой иностранной аудитории, в первую очередь, украинской диаспоре и русскоязычным зрителям, которые нуждаются в объективной, актуальной и полной информации из Украины и об Украине. В течение суток зритель просмотрит более сорока выпусков телевизионных новостей на украинском и русском языках, а также передачи о текущих событиях в Украине, о ходе экономических реформ, достижениях в науке и культуре, о знаменитых украинцах и отважных современниках, о нашей истории, удивительной природе и туристических маршрутах. «Всегда рядом» - лозунг нового мультимедийного проекта. «Открой для себя Украину!», «Поддержи Украину!», «Будь с Украиной!», «Живи Украиной» - ежедневно, ежечасно будут призывать своих зрителей журналисты UA|TV.

Доп. информация: Программа полностью на русском языке, на русский переводят даже «прямую речь» участников событий, которые говорят по-украински. Время в списке выпусков указано киевское.качество: SATRip
формат: AVI
Видео: Xvid 720x400 (16:9) ~896kbps 25fps
Аудио: MP3 128kbps 48kHz 1ch
1. 2 января 2017 года (16:00).
2. 3 января 2017 года (20:00).
3. 4 января 2017 года (20:00).
4. 5 января 2017 года (20:00).
5. 6 января 2017 года (20:00).
Код: Выделить всё
General
Complete name                            : J:\Мои раздачи\Новости\Новости. Январь 2017\[2017-01-02 16-00] Новости.avi
Format                                   : AVI
Format/Info                              : Audio Video Interleave
File size                                : 75.1 MiB
Duration                                 : 10mn 12s
Overall bit rate                         : 1 029 Kbps

Video
ID                                       : 0
Format                                   : MPEG-4 Visual
Format profile                           : Advanced [email protected]
Format settings, BVOP                    : 2
Format settings, QPel                    : No
Format settings, GMC                     : No warppoints
Format settings, Matrix                  : Default (H.263)
Codec ID                                 : XVID
Codec ID/Hint                            : XviD
Duration                                 : 10mn 12s
Bit rate                                 : 891 Kbps
Width                                    : 720 pixels
Height                                   : 400 pixels
Display aspect ratio                     : 16:9
Frame rate                               : 25.000 fps
Color space                              : YUV
Chroma subsampling                       : 4:2:0
Bit depth                                : 8 bits
Scan type                                : Progressive
Compression mode                         : Lossy
Bits/(Pixel*Frame)                       : 0.124
Stream size                              : 65.1 MiB (87%)
Writing library                          : XviD 64

Audio
ID                                       : 1
Format                                   : MPEG Audio
Format version                           : Version 1
Format profile                           : Layer 3
Codec ID                                 : 55
Codec ID/Hint                            : MP3
Duration                                 : 10mn 12s
Bit rate mode                            : Constant
Bit rate                                 : 128 Kbps
Channel(s)                               : 1 channel
Sampling rate                            : 48.0 KHz
Compression mode                         : Lossy
Stream size                              : 9.34 MiB (12%)
Alignment                                : Split accross interleaves
Interleave, duration                     : 40 ms (1.00 video frame)
Interleave, preload duration             : 500 ms
Writing library                          : LAME3.98.2
Внимание! Раздача ведётся путём добавления новых выпусков; при каждом добавлении создаётся новый торрент. Чтобы начать докачку нового выпуска, пользователям необходимо сделать следующее:
(1) остановить скачивание,
(2) удалить старый торрент у себя из клиента (старые серии удалять не надо),
(3) скачать новый торрент и запустить его у себя в клиенте вместо старого, при этом указать клиенту путь в старую папку куда и должно происходить скачивание новых выпусков.

Ваш клиент при этом должен произвести хеширование (проверку) старой папки (если не производит сам - помогите ему сделать это). В результате он будет докачивать только те выпуски, которых у Вас ещё нет. Старые выпуски при этом не удаляются, а продолжают раздаваться!

Eсли Вы уже удалили старые выпуски, то предотвратить их повторную закачку можно, сняв галочки в соответствующих местах при запуске нового торрента. По возможности, желательно не удалять старые выпуски как можно дольше, чтобы релизёр не только продолжал раздавать старые выпуски, но и смог сконцентрироваться на новых.
 
Не забывайте говорить Спасибо. Не уходите с раздачи!   
Торрент: Зарегистрирован [07 янв 2017, 13:22] Для скачивания .torrent
необходима регистрация
Или скачать с помощью
MediaGet
Статус:
Проверен
 
.torrent скачан: 0 раз
Хэш: efd1401f2034e0e2aa9c14c06fa9819a7499c27c
Размер: 570.52 МБ (598 230 868 байт)
Стать Автором раздачи
 
 
Раздал: 100 ГБ
Скачал: 0 байт
Ратио: Seed.
Сообщения: 184083
Зарегистрирован: 09 апр 2015, 20:00


  • Похожие торренты
    Ответы
    Просмотры
    Последнее сообщение

Вернуться в Информационно-аналитические и общественно-политические передачи

Кто сейчас на конференции

Сейчас эту тему просматривают: нет зарегистрированных пользователей и гости: 1

Ресурс не предоставляет электронные версии произведений, а занимается лишь коллекционированием и каталогизацией ссылок, присылаемых и публикуемых на форуме нашими читателями. Если вы являетесь правообладателем какого-либо представленного материала и не желаете чтобы ссылка на него находилась в нашем каталоге, свяжитесь с нами и мы незамедлительно удалим её. Файлы для обмена на трекере предоставлены пользователями сайта, и администрация не несёт ответственности за их содержание. Просьба не заливать файлы, защищенные авторскими правами, а также файлы нелегального содержания!