Родина или смерть / Patria o muerte (Виталий Манский) [2011, документальный, DVDRip]

 
 Статистика раздачи 
Размер: 1.46 ГБ   |  Зарегистрирован: 06 янв 2017, 21:20   |   .torrent скачан: 0 раз
Сидеров: 25  [ 0 байт/сек ]     Личеров: 8  [ 0 байт/сек ]  
  

Родина или смерть / Patria o muerte (Виталий Манский) [2011, документальный, DVDRip]

Сообщение aLaVodka » 06 янв 2017, 21:20

Родина или смерть / Patria o muerte

Дата/Год выпуска: 2011
Страна: Россия
Жанр: документальный
Продолжительность: 01:39:29
Перевод: Не требуется
Русские субтитры: нет

Режиссер: Виталий Манский

Описание: Что возникает в воображении человека при упоминании Кубы, особенно того, который никогда там не был? Скорее всего, это кабриолет со счастливыми белокурыми юношами в цветных сорочках и коктейлями в руках, в окружении танцующих мулаток, в чьих глазах отражается безбрежный океан. Из всего перечисленного, в реальности существует только безбрежный океан, отрезавший остров от всего остального мира. Пожалуй, нет на земле другой страны, где разница между ее имиджем и реальностью столь велика, как на Кубе.

Более 50-ти лет государство живет под лозунгом победившей революции: «Patria o Muerte» («Родина или смерть»). 50 лет этот лозунг является насущной дилеммой для нескольких поколений кубинцев. Фильм повествует о поколении, которое родилось до революции и сегодня подходит к черте собственной жизни. Когда всё больше становится понятно, что для них между «родиной» и «смертью» можно будет поставить знак тождества.

Доп. информация: По словам режиссёра, наличие безвизового режима между Россией и Кубой не является гарантией того, что человека с кинокамерой пустят на Остров Свободы. Добиваясь разрешения, авторы картины представили в кубинское посольство заявку о том, что они планируют снимать фильм об участниках ансамбля танца руэда де касино. Процедура оформления всех документов заняла почти полгода. Но и после получения допуска в страну у киногруппы периодически возникали сложности с кубинскими властями, пристально наблюдавшими за ходом съёмок.

Сэмпл: http://multi-up.com/1134461

качество: DVDRip
формат: AVI
Видео: 720x400 (16:9), 25 fps, XviD ~ 1642 kbps avg, 0.228 bit/pixel
Аудио: FAST Multimedia AG DVM (Dolby AC3) 48kHz, 448 kbit/s, 6 Channels
Код: Выделить всё
Общее
Полное имя                               : E:\КИНО\Rodina.ili.smert.2011.DVDRip.avi
Формат                                   : AVI
Формат/Информация                        : Audio Video Interleave
Размер файла                             : 1,46 Гбайт
Продолжительность                        : 1 ч. 39 м.
Общий поток                              : 2100 Кбит/сек
Программа кодирования                    : VirtualDubMod 1.5.10.2 (build 2540/release)
Библиотека кодирования                   : VirtualDubMod build 2540/release

Видео
Идентификатор                            : 0
Формат                                   : MPEG-4 Visual
Профиль формата                          : Advanced Simple@L5
Параметр BVOP формата                    : 1
Параметр QPel формата                    : Нет
Параметр GMC формата                     : Без точки перехода
Параметр матрицы формата                 : Выборочная
Идентификатор кодека                     : XVID
Идентификатор кодека/Подсказка           : XviD
Продолжительность                        : 1 ч. 39 м.
Битрейт                                  : 1642 Кбит/сек
Ширина                                   : 720 пикселей
Высота                                   : 400 пикселей
Соотношение сторон                       : 16:9
Частота кадров                           : 25,000 кадров/сек
Цветовое пространство                    : YUV
Субдискретизация насыщенности            : 4:2:0
Битовая глубина                          : 8 бит
Тип развёртки                            : Прогрессивная
Метод сжатия                             : С потерями
Бит/(Пиксели*Кадры)                      : 0.228
Размер потока                            : 1,14 Гбайт (78%)
Библиотека кодирования                   : XviD 1.2.1 (UTC 2008-12-04)

Аудио
Идентификатор                            : 1
Формат                                   : AC-3
Формат/Информация                        : Audio Coding 3
Расширение режима                        : CM (complete main)
Параметр Endianness формата              : Big
Идентификатор кодека                     : 2000
Продолжительность                        : 1 ч. 39 м.
Вид битрейта                             : Постоянный
Битрейт                                  : 448 Кбит/сек
Каналы                                   : 6 каналов
Расположение каналов                     : Front: L C R, Side: L R, LFE
Частота                                  : 48,0 КГц
Частота кадров                           : 31,250 кадров/сек (1536 spf)
Битовая глубина                          : 16 бит
Метод сжатия                             : С потерями
Размер потока                            : 319 Мбайт (21%)
Выравнивание                             : Разделение по промежуткам
Продолжительность промежутка             : 40  мс. (1,00 видеокадр)
Время предзагрузки промежутка            : 500  мс.
 
Не забывайте говорить Спасибо. Не уходите с раздачи!   
Торрент: Зарегистрирован [06 янв 2017, 21:20] Для скачивания .torrent
необходима регистрация
Или скачать с помощью
MediaGet
Статус:
Проверен
 
.torrent скачан: 0 раз
Хэш: 24f1d9f44b6e94bdd00f01ad819b690546693390
Размер: 1.46 ГБ (1 566 646 272 байт)
Стать Автором раздачи
 
 
Раздал: 100 ГБ
Скачал: 0 байт
Ратио: Seed.
Сообщения: 189176
Зарегистрирован: 09 апр 2015, 20:00


  • Похожие торренты
    Ответы
    Просмотры
    Последнее сообщение

Вернуться в Внежанровая документалистика

Ресурс не предоставляет электронные версии произведений, а занимается лишь коллекционированием и каталогизацией ссылок, присылаемых и публикуемых на форуме нашими читателями. Если вы являетесь правообладателем какого-либо представленного материала и не желаете чтобы ссылка на него находилась в нашем каталоге, свяжитесь с нами и мы незамедлительно удалим её. Файлы для обмена на трекере предоставлены пользователями сайта, и администрация не несёт ответственности за их содержание. Просьба не заливать файлы, защищенные авторскими правами, а также файлы нелегального содержания!
cron