Вечернее шоу "Здесь и сейчас". Выпуски за январь (+ 5 января) [2017, информационная программа, SATRip]

 
 Статистика раздачи 
Размер: 650.52 МБ   |  Зарегистрирован: 06 янв 2017, 12:18   |   .torrent скачан: 0 раз
Сидеров: 1  [ 0 байт/сек ]     Личеров: 0  [ 0 байт/сек ]  
  

Вечернее шоу "Здесь и сейчас". Выпуски за январь (+ 5 января) [2017, информационная программа, SATRip]

Сообщение aLaVodka » 06 янв 2017, 12:18

Вечернее шоу "Здесь и сейчас"
за январь 2017 года

6 января в 11:07 добавлен выпуск за 5 января,
перекачайте торрент-файл, пожалуйста

Год выпуска: 2017
Страна: Россия
Жанр: информационная программа, ток-шоу
Продолжительность: 4x60 минут
Ведущие: Анна Монгайт, Павел Лобков, Максим Товкайло, Антон Желнов, Татьяна Арно, Михаил Фишман
Язык: русский
Описание:
Главное новостное шоу дня, которое было запущено на самом старте телеканала. За прошедшее время было опробовано множество форматов и вариантов итогового новостного шоу, но главная особенность осталась прежней. Мы отбираем главные новости за день и приглашаем экспертов в студию, с которыми обсуждаем все, что произошло, и каковы могут быть последствия.
Выход в эфир: На телеканале "Дождь" с понедельника по субботу в 20.00.
Доп. информация: Время в списке выпусков указано московское.
1. 2 января 2017 года (21:00).
2. 3 января 2017 года (21:00).
3. 4 января 2017 года (21:00).
4. 5 января 2017 года (21:00).

Качество: SATRip
Формат: AVI
Видео кодек: XviD _ Аудио кодек: MP3
Видео: Xvid 720x400 (16:9) ~896kbps 25fps
Аудио: MP3 128kbps 48kHz 1ch
Код: Выделить всё
General
Complete name                            : J:\Мои раздачи\Здесь и сейчас\Здесь и сейчас. Январь 2017\[2017-01-02 21-00] Здесь и сейчас.avi
Format                                   : AVI
Format/Info                              : Audio Video Interleave
File size                                : 137 MiB
Duration                                 : 18mn 32s
Overall bit rate                         : 1 032 Kbps

Video
ID                                       : 0
Format                                   : MPEG-4 Visual
Format profile                           : Advanced Simple@L5
Format settings, BVOP                    : 2
Format settings, QPel                    : No
Format settings, GMC                     : No warppoints
Format settings, Matrix                  : Default (H.263)
Codec ID                                 : XVID
Codec ID/Hint                            : XviD
Duration                                 : 18mn 32s
Bit rate                                 : 894 Kbps
Width                                    : 720 pixels
Height                                   : 400 pixels
Display aspect ratio                     : 16:9
Frame rate                               : 25.000 fps
Color space                              : YUV
Chroma subsampling                       : 4:2:0
Bit depth                                : 8 bits
Scan type                                : Progressive
Compression mode                         : Lossy
Bits/(Pixel*Frame)                       : 0.124
Stream size                              : 119 MiB (87%)
Writing library                          : XviD 64

Audio
ID                                       : 1
Format                                   : MPEG Audio
Format version                           : Version 1
Format profile                           : Layer 3
Codec ID                                 : 55
Codec ID/Hint                            : MP3
Duration                                 : 18mn 32s
Bit rate mode                            : Constant
Bit rate                                 : 128 Kbps
Channel(s)                               : 1 channel
Sampling rate                            : 48.0 KHz
Compression mode                         : Lossy
Stream size                              : 17.0 MiB (12%)
Alignment                                : Split accross interleaves
Interleave, duration                     : 40 ms (1.00 video frame)
Interleave, preload duration             : 500 ms
Writing library                          : LAME3.98
Внимание! Раздача ведётся путём добавления новых выпусков; при каждом добавлении создаётся новый торрент. Чтобы начать докачку нового выпуска, пользователям необходимо сделать следующее:
(1) остановить скачивание,
(2) удалить старый торрент у себя из клиента (старые серии удалять не надо),
(3) скачать новый торрент и запустить его у себя в клиенте вместо старого, при этом указать клиенту путь в старую папку куда и должно происходить скачивание новых выпусков.

Ваш клиент при этом должен произвести хеширование (проверку) старой папки (если не производит сам - помогите ему сделать это). В результате он будет докачивать только те выпуски, которых у Вас ещё нет. Старые выпуски при этом не удаляются, а продолжают раздаваться!

Eсли Вы уже удалили старые выпуски, то предотвратить их повторную закачку можно, сняв галочки в соответствующих местах при запуске нового торрента. По возможности, желательно не удалять старые выпуски как можно дольше, чтобы релизёр не только продолжал раздавать старые выпуски, но и смог сконцентрироваться на новых.
 
Не забывайте говорить Спасибо. Не уходите с раздачи!   
Торрент: Зарегистрирован [06 янв 2017, 12:18] Для скачивания .torrent
необходима регистрация
Или скачать с помощью
MediaGet
Статус:
Проверен
 
.torrent скачан: 0 раз
Хэш: 857e6e48097885bfcf1c828a8e163c6d00183235
Размер: 650.52 МБ (682 122 852 байт)
Стать Автором раздачи
 
 
Раздал: 100 ГБ
Скачал: 0 байт
Ратио: Seed.
Сообщения: 187880
Зарегистрирован: 09 апр 2015, 20:00


  • Похожие торренты
    Ответы
    Просмотры
    Последнее сообщение

Вернуться в Информационно-аналитические и общественно-политические передачи

Ресурс не предоставляет электронные версии произведений, а занимается лишь коллекционированием и каталогизацией ссылок, присылаемых и публикуемых на форуме нашими читателями. Если вы являетесь правообладателем какого-либо представленного материала и не желаете чтобы ссылка на него находилась в нашем каталоге, свяжитесь с нами и мы незамедлительно удалим её. Файлы для обмена на трекере предоставлены пользователями сайта, и администрация не несёт ответственности за их содержание. Просьба не заливать файлы, защищенные авторскими правами, а также файлы нелегального содержания!
cron