Милый Ханс, дорогой Петр / My Good Hans (2015) HDTV 1080i от MediaClub

 
 Статистика раздачи 
Размер: 6.24 ГБ   |  Зарегистрирован: 06 янв 2017, 08:53   |   .torrent скачан: 11 раз
Сидеров: 89  [ 0 байт/сек ]     Личеров: 20  [ 0 байт/сек ]  
  

Милый Ханс, дорогой Петр / My Good Hans (2015) HDTV 1080i от MediaClub

Сообщение Ressler » 06 янв 2017, 08:53



Информация о фильме
Название: Милый Ханс, дорогой Петр
Оригинальное название: My Good Hans
Год выхода: 2015
Жанр: Драма
Режиссер: Александр Миндадзе
В ролях: Якоб Диль, Биргит Минихмайр, Марк Вашке, Марк Хоземанн, Э Роза Хайруллина, Андрюс Даряла, Евгений Сармонт, Ангелина Римашевская, Анна Скиданова, Светлана Косолапова

О фильме:
Накануне войны немецкие инженеры работают на советском заводе над производством высокоточной оптики. Судьба и благополучие каждого из них зависит от успеха дела, но пока результата нет — ошибки следуют одна за другой. На фоне производственных неудач и приближения трагической эпохи раскрываются личные проблемы героев и их непростые взаимоотношения. Во время ответственной варки у инженера Ханса случается нервный срыв, приведший к тяжелым последствиям: взрыву, смертям и расследованию советских спецслужб. Свидетелем его проступка становится русский рабочий Пётр. Ханс и Пётр, случайно ставший причастным к преступлению, оказываются в зависимости друг от друга, повязанные страхом разоблачения. Однако взаимное недоверие парадоксальным образом оборачивается духовной близостью. Когда Петр с женой и детьми тайно бежит из города, гонимый страхом расстрела, немецкий инженер вместо облегчения испытывает чувство утраты. Вскоре Ханс возвращается в те же места, но уже в офицерской форме, смотрит в бинокль сквозь созданные им же линзы, обозревая окрестности: а была ли недавняя мирная жизнь?.

Страна: Россия, Великобритания, Германия
Студия: AI Film, Cine Plus, Ma.Ja.De., Sota Cinema Group, Пассажир
Продолжительность: 01:59:12
Перевод: Профессиональный одноголосый на немецкую речь

Файл
Кодек: h.264
Качество: HDTV 1080i
Видео: MPEG-TS AVC, ~ 6672 Кбит/с, 1920x1080, 25.000 кадр/с
Звук: Русский (AC3, 6 ch, 448 Кбит/с)
Субтитры: Нет

Семпл

General
ID : 1 (0x1)
Complete name : D:uTorrentMilyi.Hans.dorogoi.Pjetr.2015.HDTV.1080i.MediaClub.ts
Format : MPEG-TS
File size : 6.24 GiB
Duration : 1 h 59 min
Overall bit rate mode : Variable
Overall bit rate : 7 495 kb/s
Maximum Overall bit rate : 35.5 Mb/s

Video
ID : 4113 (0x1011)
Menu ID : 1 (0x1)
Format : AVC
Format/Info : Advanced Video Codec
Format profile : Main@L4
Format settings, CABAC : Yes
Format settings, ReFrames : 4 frames
Codec ID : 27
Duration : 1 h 59 min
Bit rate mode : Variable
Bit rate : 6 672 kb/s
Maximum bit rate : 40.0 Mb/s
Width : 1 920 pixels
Height : 1 080 pixels
Display aspect ratio : 16:9
Frame rate : 25.000 FPS
Color space : YUV
Chroma subsampling : 4:2:0
Bit depth : 8 bits
Scan type : Interlaced
Scan type, store method : Separated fields
Scan order : Top Field First
Bits/(Pixel*Frame) : 0.129
Stream size : 5.56 GiB (89%)
Color range : Limited
Color primaries : BT.709
Transfer characteristics : BT.709
Matrix coefficients : BT.709

Audio
ID : 4352 (0x1100)
Menu ID : 1 (0x1)
Format : AC-3
Format/Info : Audio Coding 3
Mode extension : CM (complete main)
Format settings, Endianness : Big
Codec ID : 129
Duration : 1 h 59 min
Bit rate mode : Constant
Bit rate : 448 kb/s
Channel(s) : 6 channels
Channel positions : Front: L C R, Side: L R, LFE
Sampling rate : 44.1 kHz
Frame rate : 28.711 FPS (1536 spf)
Compression mode : Lossy
Stream size : 382 MiB (6%)
Language : Russian



Релиз от: | Silverok
 
Не забывайте говорить Спасибо. Не уходите с раздачи!   
Торрент: Зарегистрирован [06 янв 2017, 08:53] Для скачивания .torrent
необходима регистрация
Или скачать с помощью
MediaGet
Статус:
Проверен
 
.torrent скачан: 11 раз
Хэш: d943f5f2cfeebdd3ed9f6d20f7e5166e2105a43e
Размер: 6.24 ГБ (6 701 486 728 байт)
Стать Автором раздачи
 
 
Раздал: 100 ГБ
Скачал: 0 байт
Ратио: Seed.
Сообщения: 29377
Зарегистрирован: 09 апр 2015, 23:02


  • Похожие торренты
    Ответы
    Просмотры
    Последнее сообщение

Вернуться в Отечественные фильмы 2011 - 2015 года

Кто сейчас на конференции

Сейчас эту тему просматривают: нет зарегистрированных пользователей и гости: 1

Ресурс не предоставляет электронные версии произведений, а занимается лишь коллекционированием и каталогизацией ссылок, присылаемых и публикуемых на форуме нашими читателями. Если вы являетесь правообладателем какого-либо представленного материала и не желаете чтобы ссылка на него находилась в нашем каталоге, свяжитесь с нами и мы незамедлительно удалим её. Файлы для обмена на трекере предоставлены пользователями сайта, и администрация не несёт ответственности за их содержание. Просьба не заливать файлы, защищенные авторскими правами, а также файлы нелегального содержания!