Федька (2014) WEB-DL 1080p от MediaClub

 
 Статистика раздачи 
Размер: 2.97 ГБ   |  Зарегистрирован: 06 янв 2017, 07:04   |   .torrent скачан: 153 раз
Сидеров: 35  [ 0 байт/сек ]     Личеров: 9  [ 0 байт/сек ]  
  

Федька (2014) WEB-DL 1080p от MediaClub

Сообщение Ressler » 06 янв 2017, 07:04



Информация о фильме
Название: Федька
Год выхода: 2014
Жанр: Детский, семейный
Режиссер: Любовь Андреева
В ролях: Михаил Гудков, Сергей Маркеев, Ольга Волкова, Мария Шалаева, Наталья Ткаченко, Сергей Бызгу, Равшана Куркова, Михаил Пореченков

О фильме:
Мальчик Федька доказывает, что ничего невозможного в этом мире нет, особенно под Новый год. В то время, когда все дети заказывают Деду Морозу планшеты, игровые приставки и ролики, Федька пишет ему письмо с просьбой прислать ему бабушку. И делится своей новогодней тайной с лучшим другом Колькой. С этого и начинаются невероятные приключения мальчиков, их нянь Тошки и Пушпы, родителей Федьки инженеров-экспериментаторов и даже поющей черепашки...

Страна: Россия
Студия: Фаворит-фильм
Продолжительность: 01:20:22
Перевод: Не требуется

Файл
Кодек: h.264
Качество: WEB-DL 1080p
Видео: MPEG-4 AVC, 5120 Кбит/с, 1920x1080
Звук: Русский (AC3, 2 ch, 192 Кбит/с)
Субтитры: Нет

Семпл

General
Unique ID : 171397200733962928879447162089396897857 (0x80F1E66EC601B33991B2743F25E20841)
Complete name : D:uTorrentFedka.2014.WEB-DL.1080p.MediaClub.mkv
Format : Matroska
Format version : Version 4 / Version 2
File size : 2.97 GiB
Duration : 1 h 20 min
Overall bit rate : 5 297 kb/s
Encoded date : UTC 2017-01-04 00:02:23
Writing application : mkvmerge v9.7.1 ('Pandemonium') 64bit
Writing library : libebml v1.3.4 + libmatroska v1.4.5

Video
ID : 1
Format : AVC
Format/Info : Advanced Video Codec
Format profile : High@L4
Format settings, CABAC : Yes
Format settings, ReFrames : 4 frames
Codec ID : V_MPEG4/ISO/AVC
Duration : 1 h 20 min
Bit rate : 5 120 kb/s
Width : 1 920 pixels
Height : 1 080 pixels
Display aspect ratio : 16:9
Frame rate mode : Constant
Frame rate : 25.000 FPS
Color space : YUV
Chroma subsampling : 4:2:0
Bit depth : 8 bits
Scan type : Progressive
Bits/(Pixel*Frame) : 0.099
Stream size : 2.87 GiB (96%)
Writing library : x264 core 142
Encoding settings : cabac=1 / ref=3 / deblock=1:0:0 / analyse=0x3:0x113 / me=hex / subme=7 / psy=1 / psy_rd=1.00:0.00 / mixed_ref=1 / me_range=16 / chroma_me=1 / trellis=1 / 8x8dct=1 / cqm=0 / deadzone=21,11 / fast_pskip=1 / chroma_qp_offset=-2 / threads=48 / lookahead_threads=8 / sliced_threads=0 / nr=0 / decimate=1 / interlaced=0 / bluray_compat=0 / constrained_intra=0 / bframes=6 / b_pyramid=2 / b_adapt=1 / b_bias=0 / direct=1 / weightb=1 / open_gop=0 / weightp=2 / keyint=200 / keyint_min=20 / scenecut=0 / intra_refresh=0 / rc_lookahead=40 / rc=2pass / mbtree=1 / bitrate=5120 / ratetol=1.0 / qcomp=0.60 / qpmin=0 / qpmax=69 / qpstep=4 / cplxblur=20.0 / qblur=0.5 / vbv_maxrate=7680 / vbv_bufsize=20480 / nal_hrd=none / filler=0 / ip_ratio=1.40 / aq=1:1.00
Default : Yes
Forced : No

Audio
ID : 2
Format : AC-3
Format/Info : Audio Coding 3
Mode extension : CM (complete main)
Format settings, Endianness : Big
Codec ID : A_AC3
Duration : 1 h 20 min
Bit rate mode : Constant
Bit rate : 192 kb/s
Channel(s) : 2 channels
Channel positions : Front: L R
Sampling rate : 48.0 kHz
Frame rate : 31.250 FPS (1536 spf)
Compression mode : Lossy
Stream size : 110 MiB (4%)
Language : Russian
Default : Yes
Forced : No



Релиз от: | Silverok
 
Не забывайте говорить Спасибо. Не уходите с раздачи!   
Торрент: Зарегистрирован [06 янв 2017, 07:04] Для скачивания .torrent
необходима регистрация
Или скачать с помощью
MediaGet
Статус:
Проверен
 
.torrent скачан: 153 раз
Хэш: cf05c0ca6ba67879b0f46506acf1204e1027bfee
Размер: 2.97 ГБ (3 193 314 228 байт)
Стать Автором раздачи
 
 
Раздал: 100 ГБ
Скачал: 0 байт
Ратио: Seed.
Сообщения: 29044
Зарегистрирован: 09 апр 2015, 23:02


  • Похожие торренты
    Ответы
    Просмотры
    Последнее сообщение

Вернуться в Отечественные фильмы 2011 - 2015 года

Кто сейчас на конференции

Сейчас эту тему просматривают: нет зарегистрированных пользователей и гости: 1

Ресурс не предоставляет электронные версии произведений, а занимается лишь коллекционированием и каталогизацией ссылок, присылаемых и публикуемых на форуме нашими читателями. Если вы являетесь правообладателем какого-либо представленного материала и не желаете чтобы ссылка на него находилась в нашем каталоге, свяжитесь с нами и мы незамедлительно удалим её. Файлы для обмена на трекере предоставлены пользователями сайта, и администрация не несёт ответственности за их содержание. Просьба не заливать файлы, защищенные авторскими правами, а также файлы нелегального содержания!