Наследники (2015) HDTVRip 1080p от MediaClub

 
 Статистика раздачи 
Размер: 6.85 ГБ   |  Зарегистрирован: 06 янв 2017, 03:27   |   .torrent скачан: 68 раз
Сидеров: 26  [ 0 байт/сек ]     Личеров: 9  [ 0 байт/сек ]  
  

Наследники (2015) HDTVRip 1080p от MediaClub

Сообщение Ressler » 06 янв 2017, 03:27



Информация о фильме
Название: Наследники
Год выхода: 2015
Жанр: Драма
Режиссер: Владимир Хотиненко
В ролях: Леонид Бичевин, Александр Балуев, Анатолий Белый, Агриппина Стеклова, Александр Коротков, Алла Юганова, Наталья Курдюбова, Алексей Кирсанов, Сергей Качанов, Артур Мухамадияров

О фильме:
Большая часть действия фильма происходит в студии ток-шоу, где политолог, патриот, попдива и другие персонажи во главе с ведущим обсуждают фигуру и наследие преподобного Сергия Радонежского. В разгар записи Ведущий неожиданно узнает, что его программу закрывают. Решив, что терять ему нечего, Ведущий идёт ва-банк и стремится прежде всего «разоблачить» — церковь, власть, своих собеседников… Но эффект оказывается совсем не тот, на который он рассчитывал. В пылу оживленной и даже яростной полемики мы начинаем прозревать подлинного Сергия Радонежского, а в эпизодах истории как в зеркале угадываем проблемы современной России...

Страна: Россия
Студия: ДA-Cтудия, Рой
Продолжительность: 01:42:44
Перевод: Не требуется

Файл
Кодек: h.264
Качество: HDTVRip 1080p
Видео: MPEG-4 AVC, 9100 Кбит/с, 1920x800
Звук: Русский (AC3, 6 ch, 448 Кбит/с)
Субтитры: Нет

Семпл
Автор релиза - Silverok, первоисточник - Наш Кинороман HD

General
Unique ID : 199893381166989712199459181779584248090 (0x96621099D75E6569AE62D1D8442F691A)
Complete name : D:uTorrentNasledniki.2015.HDTVRip.1080p.MediaClub.mkv
Format : Matroska
Format version : Version 4 / Version 2
File size : 6.85 GiB
Duration : 1 h 42 min
Overall bit rate : 9 546 kb/s
Encoded date : UTC 2017-01-05 08:38:03
Writing application : mkvmerge v9.7.1 ('Pandemonium') 64bit
Writing library : libebml v1.3.4 + libmatroska v1.4.5

Video
ID : 1
Format : AVC
Format/Info : Advanced Video Codec
Format profile : High@L4.1
Format settings, CABAC : Yes
Format settings, ReFrames : 5 frames
Codec ID : V_MPEG4/ISO/AVC
Duration : 1 h 42 min
Bit rate : 9 100 kb/s
Width : 1 920 pixels
Height : 800 pixels
Display aspect ratio : 2.40:1
Frame rate mode : Constant
Frame rate : 25.000 FPS
Color space : YUV
Chroma subsampling : 4:2:0
Bit depth : 8 bits
Scan type : Progressive
Bits/(Pixel*Frame) : 0.237
Stream size : 6.53 GiB (95%)
Title : HDTVRip by Silverok
Writing library : x264 core 148 r2638 7599210
Encoding settings : cabac=1 / ref=5 / deblock=1:-3:-3 / analyse=0x3:0x113 / me=umh / subme=10 / psy=1 / psy_rd=1.00:0.10 / mixed_ref=1 / me_range=32 / chroma_me=1 / trellis=2 / 8x8dct=1 / cqm=0 / deadzone=21,11 / fast_pskip=0 / chroma_qp_offset=-3 / threads=12 / lookahead_threads=3 / sliced_threads=0 / nr=0 / decimate=0 / interlaced=0 / bluray_compat=0 / constrained_intra=0 / bframes=16 / b_pyramid=2 / b_adapt=2 / b_bias=0 / direct=3 / weightb=1 / open_gop=0 / weightp=2 / keyint=250 / keyint_min=25 / scenecut=40 / intra_refresh=0 / rc_lookahead=40 / rc=2pass / mbtree=0 / bitrate=9100 / ratetol=1.0 / qcomp=0.60 / qpmin=0 / qpmax=69 / qpstep=4 / cplxblur=20.0 / qblur=0.5 / vbv_maxrate=62500 / vbv_bufsize=78125 / nal_hrd=none / filler=0 / ip_ratio=1.40 / pb_ratio=1.30 / aq=1:1.00
Default : Yes
Forced : No

Audio
ID : 2
Format : AC-3
Format/Info : Audio Coding 3
Mode extension : CM (complete main)
Format settings, Endianness : Big
Codec ID : A_AC3
Duration : 1 h 42 min
Bit rate mode : Constant
Bit rate : 448 kb/s
Channel(s) : 6 channels
Channel positions : Front: L C R, Side: L R, LFE
Sampling rate : 48.0 kHz
Frame rate : 31.250 FPS (1536 spf)
Compression mode : Lossy
Stream size : 329 MiB (5%)
Language : Russian
Default : Yes
Forced : No



Релиз от: | Silverok
 
Не забывайте говорить Спасибо. Не уходите с раздачи!   
Торрент: Зарегистрирован [06 янв 2017, 03:27] Для скачивания .torrent
необходима регистрация
Или скачать с помощью
MediaGet
Статус:
Проверен
 
.torrent скачан: 68 раз
Хэш: f05434dde5e3ebd5992209ec65ed4f8092f54f62
Размер: 6.85 ГБ (7 355 743 407 байт)
Стать Автором раздачи
 
 
Раздал: 100 ГБ
Скачал: 0 байт
Ратио: Seed.
Сообщения: 29049
Зарегистрирован: 09 апр 2015, 23:02


  • Похожие торренты
    Ответы
    Просмотры
    Последнее сообщение

Вернуться в Отечественные фильмы 2011 - 2015 года

Кто сейчас на конференции

Сейчас эту тему просматривают: нет зарегистрированных пользователей и гости: 1

Ресурс не предоставляет электронные версии произведений, а занимается лишь коллекционированием и каталогизацией ссылок, присылаемых и публикуемых на форуме нашими читателями. Если вы являетесь правообладателем какого-либо представленного материала и не желаете чтобы ссылка на него находилась в нашем каталоге, свяжитесь с нами и мы незамедлительно удалим её. Файлы для обмена на трекере предоставлены пользователями сайта, и администрация не несёт ответственности за их содержание. Просьба не заливать файлы, защищенные авторскими правами, а также файлы нелегального содержания!