Труднейший в мире ремонт / World's toughest fixes (27 выпусков) [2008, Документальный, HDTV 1080i]

 
 Статистика раздачи 
Размер: 89.54 ГБ   |  Зарегистрирован: 05 янв 2017, 12:31   |   .torrent скачан: 0 раз
Сидеров: 2  [ 0 байт/сек ]     Личеров: 1  [ 0 байт/сек ]  
  

Труднейший в мире ремонт / World's toughest fixes (27 выпусков) [2008, Документальный, HDTV 1080i]

Сообщение aLaVodka » 05 янв 2017, 12:31

Труднейший в мире ремонт / World's toughest fixes

Год выпуска: 2008
Страна: сша
Жанр: Документальный
Продолжительность: 00:44:51
Перевод: Профессиональный (двухголосый закадровый)
Доп. инфо о переводе: арк тв
Русские субтитры: нет
Релиз: klepik.u

Описание: Фильм «Труднейший в мире ремонт» посвящён самым невероятным ремонтным работам. В течение каждой серии Шон Райли будет работать на пределе своих возможностей вместе с лучшими в мире механиками, показывая зрителям, как проходит этот сложнейший ремонт. Ради выполнения этой задачи Райли, профессиональный механик, любящий приключения, готов надеть защитный костюм или прикрепить себя к высоковольтной линии передач. Он побывал во множестве опасных ситуаций, но при выполнении каждой задачи он должен показать команде, что профессионально знает свое дело. Райли быстро включается в работу и вскоре пробует свои силы, помогая экспертам решать задачи по ремонту крупнейших объектов. Будь то в воздухе в сотнях метров над землей или на большой глубине вблизи винтов судна, благодаря своему техническому мастерству Райли продемонстрирует чудеса тяжелой промышленности и то, что происходит, когда что-то идет не по плану.

05.01.2017 _ добавил: Гигантский ветряк,
перезаливаем
Антенна дальней космической связи
Большой адронный коллайдер
Водные горки
Высокое напряжение
Гигантский ветряк
Гигантский телескоп
Глубоководная техника
Замена гигантской антенны
Запуск спутника
Как переместить гигантскую баржу
Круизный лайнер с течью
Мост Бэй-Бридж в Сан-Франциско
Мост между небоскребами
Мост на скорую руку
Операция Круизный лайнер
Перекрытие трубопровода
Плотина на реке Колумбия
Поломка в Вегасе
Работа на высоте
Реанимация самолётов
Руль в 50 тонн
Солнечная башня
Спасение на Аляске
Строительство горнолыжного подъемника
Тауэрский мост
Техасская телебашня
Час пик
Сэмпл: http://multi-up.com/1111857

Тип релиза: HDTV 1080i
Контейнер: TS

Видео: AVC, 1920x1080, (16:9), 25 fps, 7.7 Mbps, 0.48 bit/pixel
Аудио: #1: Russian, AC3, 48 kHz, 6 ch; 448 kbps
Аудио: #2: English, AC3, 48 kHz, 6 ch; 448 kbps
Код: Выделить всё
General
ID                                       : 1 (0x1)
Complete name                            : E:\Большой адронный коллайдер.ts
Format                                   : MPEG-TS
File size                                : 2.96 GiB
Duration                                 : 47 min
Overall bit rate mode                    : Variable
Overall bit rate                         : 9 007 kb/s

Video
ID                                       : 302 (0x12E)
Menu ID                                  : 26002 (0x6592)
Format                                   : AVC
Format/Info                              : Advanced Video Codec
Format profile                           : High@L4
Format settings, CABAC                   : Yes
Format settings, ReFrames                : 4 frames
Codec ID                                 : 27
Duration                                 : 47 min
Bit rate                                 : 7 657 kb/s
Width                                    : 1 920 pixels
Height                                   : 1 080 pixels
Display aspect ratio                     : 16:9
Frame rate                               : 25.000 FPS
Standard                                 : Component
Color space                              : YUV
Chroma subsampling                       : 4:2:0
Bit depth                                : 8 bits
Scan type                                : Interlaced
Scan type, store method                  : Separated fields
Scan order                               : Top Field First
Bits/(Pixel*Frame)                       : 0.148
Stream size                              : 2.51 GiB (85%)
Color range                              : Limited
Color primaries                          : BT.709
Transfer characteristics                 : BT.709
Matrix coefficients                      : BT.709

Audio #1
ID                                       : 402 (0x192)
Menu ID                                  : 26002 (0x6592)
Format                                   : AC-3
Format/Info                              : Audio Coding 3
Mode extension                           : CM (complete main)
Format settings, Endianness              : Big
Codec ID                                 : 6
Duration                                 : 47 min
Bit rate mode                            : Constant
Bit rate                                 : 448 kb/s
Channel(s)                               : 6 channels
Channel positions                        : Front: L C R, Side: L R, LFE
Sampling rate                            : 48.0 kHz
Frame rate                               : 31.250 FPS (1536 spf)
Compression mode                         : Lossy
Delay relative to video                  : -40 ms
Stream size                              : 151 MiB (5%)
Language                                 : Russian

Audio #2
ID                                       : 422 (0x1A6)
Menu ID                                  : 26002 (0x6592)
Format                                   : AC-3
Format/Info                              : Audio Coding 3
Mode extension                           : CM (complete main)
Format settings, Endianness              : Big
Codec ID                                 : 6
Duration                                 : 47 min
Bit rate mode                            : Constant
Bit rate                                 : 448 kb/s
Channel(s)                               : 6 channels
Channel positions                        : Front: L C R, Side: L R, LFE
Sampling rate                            : 48.0 kHz
Frame rate                               : 31.250 FPS (1536 spf)
Compression mode                         : Lossy
Delay relative to video                  : -40 ms
Stream size                              : 151 MiB (5%)
Language                                 : English
 
Не забывайте говорить Спасибо. Не уходите с раздачи!   
Торрент: Зарегистрирован [05 янв 2017, 12:31] Для скачивания .torrent
необходима регистрация
Или скачать с помощью
MediaGet
Статус:
Проверен
 
.torrent скачан: 0 раз
Хэш: 8dd3b66a9325ce3a9340c8503cd11b3f63a92bde
Размер: 89.54 ГБ (96 141 532 252 байт)
Стать Автором раздачи
 
 
Раздал: 100 ГБ
Скачал: 0 байт
Ратио: Seed.
Сообщения: 187792
Зарегистрирован: 09 апр 2015, 20:00


Вернуться в BBC, Discovery, National Geographic (HD Video)

Ресурс не предоставляет электронные версии произведений, а занимается лишь коллекционированием и каталогизацией ссылок, присылаемых и публикуемых на форуме нашими читателями. Если вы являетесь правообладателем какого-либо представленного материала и не желаете чтобы ссылка на него находилась в нашем каталоге, свяжитесь с нами и мы незамедлительно удалим её. Файлы для обмена на трекере предоставлены пользователями сайта, и администрация не несёт ответственности за их содержание. Просьба не заливать файлы, защищенные авторскими правами, а также файлы нелегального содержания!
cron