Глубоководный горизонт / Deepwater Horizon (2016) BDRemux 1080p от ExKinoRay | iTunes

Самое свежее и новое. Побалуй себя новинками этого года!
 
 Статистика раздачи 
Размер: 22.83 ГБ   |  Зарегистрирован: 01 янв 2017, 15:57   |   .torrent скачан: 1079 раз
Сидеров: 210  [ 0 байт/сек ]     Личеров: 50  [ 0 байт/сек ]  
  

Глубоководный горизонт / Deepwater Horizon (2016) BDRemux 1080p от ExKinoRay | iTunes

Сообщение Ressler » 01 янв 2017, 15:57

Информация о фильме
Название: Глубоководный горизонт
Оригинальное название: Deepwater Horizon
Год выхода: 2016
Жанр: Боевик, триллер, драма
Режиссер: Питер Берг
В ролях: Марк Уолберг, Курт Расселл, Джон Малкович, Джина Родригез, Дилан О`Брайэн, Кейт Хадсон, Итэн Сапли, Генри Фрост, Дуглас М. Гриффин, Сью-Линн Ансари, Брэд Лелэнд, Дж.Д. Эвермор

О фильме:
Инженер-электрик Майк Уильямс наслаждается жизнью по утрам со своей красавицей-женой, гоняет маленькую дочку по матчасти бурильных установок и готовится отбывать трудовую вахту на нефтяной платформе "Глубоководный горизонт" в Мексиканском заливе. Он еще не знает, что вместо мирного сна в подсобке его ожидает филиал ада на земле во время самого крупного разлива нефти в истории США.


Страна: США
Студия: Closest to the Hole Productions, Di Bonaventura Pictures, Imagenation Abu Dhabi FZ, Leverage Entertainment
Продолжительность: 01:47:17
Перевод: Дублированный | iTunes

Файл
Качество: BDRemux 1080p
Видео: MPEG-4 AVC, 1920x1080, 25.0 Mbit/s, 23.976 fps
Звук:
Аудио #01: 48 kHz, AC3, 5.1, 384 Kbps | Дублированный | iTunes |
Аудио #02: 48 kHz, Dolby TrueHD, 7.1, 5035 kbps | Оригинал |
Субтитры: Английские

Общее
Уникальный идентификатор : 185550958316521052176884609114462806299 (0x8B97D08F133D304E8B9AE27456E0E11B)
Полное имя : F:VideoDeepwater.Horizon.2016.BDREMUX.1080p.ExKinoRay.mkv
Формат : Matroska
Версия формата : Version 4 / Version 2
Размер файла : 22,8 Гбайт
Продолжительность : 1 ч. 47 м.
Режим общего битрейта : Переменный
Общий поток : 30,5 Мбит/сек
Название фильма : Deepwater.Horizon.2016 ***селезень***
Дата кодирования : UTC 2017-01-01 11:59:32
Программа кодирования : mkvmerge v8.3.0 ('Over the Horizon') 64bit
Библиотека кодирования : libebml v1.3.1 + libmatroska v1.4.2

Видео
Идентификатор : 1
Формат : AVC
Формат/Информация : Advanced Video Codec
Профиль формата : [email protected]
Параметр CABAC формата : Да
Параметр ReFrames формата : 4 кадра
Идентификатор кодека : V_MPEG4/ISO/AVC
Продолжительность : 1 ч. 47 м.
Вид битрейта : Переменный
Битрейт : 25,0 Мбит/сек
Максимальный битрейт : 36,4 Мбит/сек
Ширина : 1920 пикселей
Высота : 1080 пикселей
Соотношение сторон : 16:9
Режим частоты кадров : Постоянный
Частота кадров : 23,976 (24000/1001) кадра/сек
Цветовое пространство : YUV
Субдискретизация насыщенности : 4:2:0
Битовая глубина : 8 бит
Тип развёртки : Прогрессивная
Бит/(Пиксели*Кадры) : 0.502
Размер потока : 18,7 Гбайт (82%)
Заголовок : Deepwater.Horizon.2016 ***селезень***
Язык : English
Default : Да
Forced : Нет

Аудио #1
Идентификатор : 2
Формат : AC-3
Формат/Информация : Audio Coding 3
Расширение режима : CM (complete main)
Параметр Endianness формата : Big
Идентификатор кодека : A_AC3
Продолжительность : 1 ч. 47 м.
Вид битрейта : Постоянный
Битрейт : 384 Кбит/сек
Каналы : 6 каналов
Расположение каналов : Front: L C R, Side: L R, LFE
Частота : 48,0 КГц
Частота кадров : 31,250 кадров/сек (1536 spf)
Битовая глубина : 16 бит
Метод сжатия : С потерями
Размер потока : 295 Мбайт (1%)
Заголовок : Dub [iTunes]
Язык : Russian
Default : Да
Forced : Нет

Аудио #2
Идентификатор : 3
Формат : Atmos / TrueHD
Идентификатор кодека : A_TRUEHD
Продолжительность : 1 ч. 47 м.
Вид битрейта : Переменный
Битрейт : 5035 Кбит/сек
Максимальный битрейт : 6759 Кбит/сек
Каналы : Object Based / 8 каналов
Расположение каналов : Object Based / Front: L C R, Side: L R, Back: L R, LFE
Частота : / 48,0 КГц
Частота кадров : 1200,000 кадров/сек (40 spf)
Метод сжатия : Без потерь
Размер потока : 3,77 Гбайт (17%)
Заголовок : Original
Язык : English
Default : Нет
Forced : Нет

Текст
Идентификатор : 4
Формат : UTF-8
Идентификатор кодека : S_TEXT/UTF8
Идентификатор кодека/Информация : UTF-8 Plain Text
Продолжительность : 1 ч. 36 м.
Битрейт : 70 бит/сек
Count of elements : 1477
Размер потока : 50,2 Кбайт (0%)
Заголовок : Full
Язык : English
Default : Нет
Forced : Нет

Меню
00:00:00.000 : en:Chapter 01
00:07:01.212 : en:Chapter 03
00:12:32.626 : en:Chapter 05
00:19:34.464 : en:Chapter 07
00:27:17.218 : en:Chapter 09
00:34:52.632 : en:Chapter 11
00:44:29.833 : en:Chapter 13
00:48:04.923 : en:Chapter 15
00:53:47.599 : en:Chapter 17
00:58:05.148 : en:Chapter 19
01:05:44.607 : en:Chapter 21
01:10:06.869 : en:Chapter 23
01:16:02.933 : en:Chapter 25
01:20:44.381 : en:Chapter 27
01:27:37.668 : en:Chapter 29
01:31:37.825 : en:Chapter 31
01:47:17.222 : en:Chapter 32




Релиз от: Автор релиза:
 
Не забывайте говорить Спасибо. Не уходите с раздачи!   
Торрент: Зарегистрирован [01 янв 2017, 15:57] Для скачивания .torrent
необходима регистрация
Или скачать с помощью
MediaGet
Статус:
Проверен
 
.torrent скачан: 1079 раз
Хэш: 88617c4f1f14f4184345618871dd7bb785b467e3
Размер: 22.83 ГБ (24 508 847 244 байт)
Стать Автором раздачи
 
 
Раздал: 100 ГБ
Скачал: 0 байт
Ратио: Seed.
Сообщения: 25849
Зарегистрирован: 09 апр 2015, 23:02


  • Похожие торренты
    Ответы
    Просмотры
    Последнее сообщение

Вернуться в Зарубежные фильмы 2016 года

Кто сейчас на конференции

Сейчас эту тему просматривают: нет зарегистрированных пользователей и гости: 1

Ресурс не предоставляет электронные версии произведений, а занимается лишь коллекционированием и каталогизацией ссылок, присылаемых и публикуемых на форуме нашими читателями. Если вы являетесь правообладателем какого-либо представленного материала и не желаете чтобы ссылка на него находилась в нашем каталоге, свяжитесь с нами и мы незамедлительно удалим её. Файлы для обмена на трекере предоставлены пользователями сайта, и администрация не несёт ответственности за их содержание. Просьба не заливать файлы, защищенные авторскими правами, а также файлы нелегального содержания!