Раскрывая мистические тайны. До свидания, Високосный год! (2016) SATRip

 
 Статистика раздачи 
Размер: 579.83 МБ   |  Зарегистрирован: 29 дек 2016, 01:39   |   .torrent скачан: 0 раз
Сидеров: 1  [ 0 байт/сек ]     Личеров: 0  [ 0 байт/сек ]  
  

Раскрывая мистические тайны. До свидания, Високосный год! (2016) SATRip

Сообщение explosiveone » 29 дек 2016, 01:39

Раскрывая мистические тайны. До свидания, Високосный год! (2016) SATRip

Производство: Москва Медиа
Жанр: Документальный

Описание:
В конце года принято подводить итоги. Декабрь – идеальное время, чтобы анализировать события прошлого, строить планы на будущее и загадывать желания. Как экстрасенсы способны помочь, смотрите в программе "Раскрывая мистические тайны".

Продолжительность: 00:44:06
Качество видео: SATRip
Субтитры: Отсутствуют

Видео: MPEG4, XviD, 704x384 (16:9), 25.000 fps, 1 700 Kbps (0.252 bit/pixel)
Аудио: MP3, 44.1 KHz, 2 ch, 128 Kbps, CBR
Код:  Общее
Полное имя                               : D:\[1]\Раскрывая мистические тайны\Раскрывая мистические тайны. До свидания, Високосный год! (2016).avi
Формат                                   : AVI
Формат/Информация                        : Audio Video Interleave
Размер файла                             : 580 Мбайт
Продолжительность                        : 44 м.
Общий поток                              : 1838 Кбит/сек
Программа кодирования                    : VirtualDubMod 1.5.10.3 | www.virtualdub-fr.org || (build 2550/release)
Библиотека кодирования                   : VirtualDubMod build 2550/release

Видео
Идентификатор                            : 0
Формат                                   : MPEG-4 Visual
Профиль формата                          : Advanced [email protected]
Параметр BVOP формата                    : 1
Параметр QPel формата                    : Нет
Параметр GMC формата                     : Без точки перехода
Параметр матрицы формата                 : Default (H.263)
Идентификатор кодека                     : XVID
Идентификатор кодека/Подсказка           : XviD
Продолжительность                        : 44 м.
Битрейт                                  : 1700 Кбит/сек
Ширина                                   : 704 пикселя
Высота                                   : 384 пикселя
Соотношение сторон                       : 1,85:1
Частота кадров                           : 25,000 кадров/сек
Цветовое пространство                    : YUV
Субдискретизация насыщенности            : 4:2:0
Битовая глубина                          : 8 бит
Тип развёртки                            : Прогрессивная
Метод сжатия                             : С потерями
Бит/(Пиксели*Кадры)                      : 0.252
Размер потока                            : 536 Мбайт (93%)
Библиотека кодирования                   : XviD 1.2.1 (UTC 2008-12-04)

Аудио
Идентификатор                            : 1
Формат                                   : MPEG Audio
Версия формата                           : Version 1
Профиль формата                          : Layer 3
Идентификатор кодека                     : 55
Идентификатор кодека/Подсказка           : MP3
Продолжительность                        : 44 м.
Вид битрейта                             : Постоянный
Битрейт                                  : 128 Кбит/сек
Каналы                                   : 2 канала
Частота                                  : 44,1 КГц
Метод сжатия                             : С потерями
Размер потока                            : 40,4 Мбайт (7%)
Выравнивание                             : Разделение по промежуткам
Продолжительность промежутка             : 40  мс. (1,00 видеокадр)
Время предзагрузки промежутка            : 500  мс.
Библиотека кодирования                   : LAME3.99r
Настройки программы                      : -m s -V 4 -q 2 -lowpass 17 -b 128
 

Скриншоты:



Время раздачи: 24/7. До первых 5 скачавших.
 
Не забывайте говорить Спасибо. Не уходите с раздачи!   
Торрент: Зарегистрирован [29 дек 2016, 01:39] Для скачивания .torrent
необходима регистрация
Или скачать с помощью
MediaGet
Статус:
Проверен
 
.torrent скачан: 0 раз
Хэш: 6a607e91a19e4d85b5040ad54f7bc6608aa9e56a
Размер: 579.83 МБ (607 993 856 байт)
Стать Автором раздачи
 
 
Раздал: 100 ГБ
Скачал: 0 байт
Ратио: Seed.
Сообщения: 82289
Зарегистрирован: 09 апр 2015, 22:31


  • Похожие торренты
    Ответы
    Просмотры
    Последнее сообщение

Вернуться в Паранормальные явления

Кто сейчас на конференции

Сейчас эту тему просматривают: нет зарегистрированных пользователей и гости: 1

Ресурс не предоставляет электронные версии произведений, а занимается лишь коллекционированием и каталогизацией ссылок, присылаемых и публикуемых на форуме нашими читателями. Если вы являетесь правообладателем какого-либо представленного материала и не желаете чтобы ссылка на него находилась в нашем каталоге, свяжитесь с нами и мы незамедлительно удалим её. Файлы для обмена на трекере предоставлены пользователями сайта, и администрация не несёт ответственности за их содержание. Просьба не заливать файлы, защищенные авторскими правами, а также файлы нелегального содержания!