Discovery: Выжить после селфи / Still Alive (2015) HDTVRip [H.264/720p-LQ] (1-6 серии из 6)

 
 Статистика раздачи 
Размер: 7.69 ГБ   |  Зарегистрирован: 29 дек 2016, 00:38   |   .torrent скачан: 0 раз
Сидеров: 1  [ 0 байт/сек ]     Личеров: 0  [ 0 байт/сек ]  
  

Discovery: Выжить после селфи / Still Alive (2015) HDTVRip [H.264/720p-LQ] (1-6 серии из 6)

Сообщение explosiveone » 29 дек 2016, 00:38

Discovery: Выжить после селфи / Still Alive (2015) HDTVRip [H.264/720p-LQ] (1-6 серии из 6)

Телекомпания: Discovery Communications, LLC.
Жанр: Документальный

Описание:
Еще десять лет назад YouTube, GoPro, смартфоны и социальные сети были для нас в новинку, но с тех пор многое изменилось. Теперь мы можем взглянуть на мир через объектив камеры и вновь пережить самые памятные события в жизни. Новая программа «Выжить после селфи» расскажет об уникальных историях выживания, снятые людьми, которые побывали на грани жизни и смерти и сняли это на камеру. Под снежной лавиной, в подземной пещере, в открытом море и водах бурной реки, в лапах медведя или в пасти акулы – с каждым из участников программы в тот момент был маленький цифровой свидетель, который и запечатлел судьбоносные моменты. И теперь у нас есть возможность оказаться на месте каждого из героев программы и их глазами увидеть всё, что произошло.

Продолжительность: ~ 00:44:00 (серия)
Качество видео: HDTVRip
Перевод: Профессиональный одноголосый закадровый

Релиз от: Generalfilm

Видео: H.264/AVC, 1280x720, ~3900 Kbps
Аудио: MP2, 2 ch, 192 Kbps
Код: Выделить всё
           [b]Код:[/b] Общее
Уникальный идентификатор                 : 92013835680311206395356043439358473706 (0x4539385B5271752921670AD32A9DF5EA)
Полное имя                               : Выжить после селфи 720p GeneralFilm\Still Alive (01).mkv
Формат                                   : Matroska
Версия формата                           : Version 2
Размер файла                             : 1,28 Гбайт
Продолжительность                        : 43 м. 57 с.
Режим общего битрейта                    : Переменный
Общий поток                              : 4171 Кбит/сек
Программа кодирования                    : Lavf54.63.104
Библиотека кодирования                   : Lavf54.63.104 / Lavf54.63.104

Видео
Идентификатор                            : 1
Формат                                   : AVC
Формат/Информация                        : Advanced Video Codec
Профиль формата                          :
Параметр CABAC формата                   : Да
Параметр ReFrames формата                : 3 кадра
Идентификатор кодека                     : V_MPEG4/ISO/AVC
Продолжительность                        : 43 м. 57 с.
Вид битрейта                             : Переменный
Битрейт                                  : 3896 Кбит/сек
Максимальный битрейт                     : 4000 Кбит/сек
Ширина                                   : 1280 пикселей
Высота                                   : 720 пикселей
Соотношение сторон                       : 16:9
Режим частоты кадров                     : Постоянный
Частота кадров                           : 25,000 кадров/сек
Стандарт вещания                         : PAL
Цветовое пространство                    : YUV
Субдискретизация насыщенности            : 4:2:0
Битовая глубина                          : 8 бит
Тип развёртки                            : Прогрессивная
Бит/(Пиксели*Кадры)                      : 0.169
Размер потока                            : 1,20 Гбайт (93%)
Default                                  : Нет
Forced                                   : Нет
Цветовой диапазон                        : Limited
Основные цвета                           : BT.709
Характеристики трансфера                 : BT.709
Коэффициенты матрицы                     : BT.709

Аудио
Идентификатор                            : 2
Формат                                   : MPEG Audio
Версия формата                           : Version 1
Профиль формата                          : Layer 2
Идентификатор кодека                     : A_MPEG/L2
Идентификатор кодека/Подсказка           : MP2
Продолжительность                        : 43 м. 57 с.
Вид битрейта                             : Постоянный
Битрейт                                  : 192 Кбит/сек
Каналы                                   : 2 канала
Частота                                  : 48,0 КГц
Метод сжатия                             : С потерями
Размер потока                            : 60,4 Мбайт (5%)
Язык                                     : Russian
Default                                  : Да
Forced                                   : Нет

Скриншоты:




Время раздачи: 24/7
 
Не забывайте говорить Спасибо. Не уходите с раздачи!   
Торрент: Зарегистрирован [29 дек 2016, 00:38] Для скачивания .torrent
необходима регистрация
Или скачать с помощью
MediaGet
Статус:
Проверен
 
.torrent скачан: 0 раз
Хэш: 8aadea202fd23f461697b6ed2c240c9efd755ce5
Размер: 7.69 ГБ (8 251 836 889 байт)
Стать Автором раздачи
 
 
Раздал: 100 ГБ
Скачал: 0 байт
Ратио: Seed.
Сообщения: 82288
Зарегистрирован: 09 апр 2015, 22:31


  • Похожие торренты
    Ответы
    Просмотры
    Последнее сообщение

Вернуться в Discovery

Кто сейчас на конференции

Сейчас эту тему просматривают: нет зарегистрированных пользователей и гости: 1

Ресурс не предоставляет электронные версии произведений, а занимается лишь коллекционированием и каталогизацией ссылок, присылаемых и публикуемых на форуме нашими читателями. Если вы являетесь правообладателем какого-либо представленного материала и не желаете чтобы ссылка на него находилась в нашем каталоге, свяжитесь с нами и мы незамедлительно удалим её. Файлы для обмена на трекере предоставлены пользователями сайта, и администрация не несёт ответственности за их содержание. Просьба не заливать файлы, защищенные авторскими правами, а также файлы нелегального содержания!