Единственный уцелевший / The One That Got Away (Пол Гринграсс) [1996, Великобритания, Военный, исторический, TVRip] DVO

 
 Статистика раздачи 
Размер: 6.05 ГБ   |  Зарегистрирован: 28 дек 2016, 21:53   |   .torrent скачан: 0 раз
Сидеров: 5  [ 0 байт/сек ]     Личеров: 2  [ 0 байт/сек ]  
  

Единственный уцелевший / The One That Got Away (Пол Гринграсс) [1996, Великобритания, Военный, исторический, TVRip] DVO

Сообщение aLaVodka » 28 дек 2016, 21:53

Единственный уцелевший / The One That Got Away

Страна: Великобритания
Жанр: Военный, исторический
Год выпуска: 1996
Продолжительность: 01:42:25

Перевод: Профессиональный (двухголосый закадровый)
Cубтитры: нет
Режиссер: Пол Гринграсс

В ролях: Джоди Абрахамс
Ник Бримбл
Саймон Бурк
Дэвид Клэтворти
Джек Эллис
Сэм Хэлпенни
Андре Джейкобс
Стэфан Калифа
Пол МакГанн
Джордж Миддлкуп

Описание: Фильм рассказывает о реальной истории патруля «Браво-два-ноль» (Bravo Two Zero; B20) — позывной патруля Специальной авиационной службы (SAS) Британской Армии, действовавшего на территории Ирака во время войны в Персидском заливе (1991).
Это вариант фильма Браво два ноль (Буря в пустыне) ( )

Доп. информация: Фильм записан с ТВ, начало фильма (несколько секунд) обрезаны.

Сэмпл: https://www.sendspace.com/file/tbff30

Качество видео: TVRip
Формат видео: MPG

Видео: MPEG Video, 720х576, 4:3, 25 кадров/сек, 8000 Кбит/сек
Аудио: MPEG Audio, 44,1 КГц, 224 Кбит/сек, 2 канала
Общее
Полное имя : C:\Users\Оксана\Documents\honestech TVR\MP2_Dec28_170319_0.mpg
Формат : MPEG-PS
Размер файла : 6,05 Гбайт
Продолжительность : 1 ч. 42 м.
Режим общего битрейта : Постоянный
Общий поток : 8459 Кбит/сек
Библиотека кодирования : honestech

Видео
Идентификатор : 224 (0xE0)
Формат : MPEG Video
Версия формата : Version 2
Профиль формата : Main@Main
Параметр BVOP формата : Да
Параметр матрицы формата : По умолчанию
Параметр GOP формата : M=3, N=15
Продолжительность : 1 ч. 42 м.
Вид битрейта : Постоянный
Битрейт : 8000 Кбит/сек
Ширина : 720 пикселей
Высота : 576 пикселей
Соотношение сторон : 4:3
Частота кадров : 25,000 кадров/сек
Стандарт вещания : NTSC
Цветовое пространство : YUV
Субдискретизация насыщенности : 4:2:0
Битовая глубина : 8 бит
Тип развёртки : Прогрессивная
Метод сжатия : С потерями
Бит/(Пиксели*Кадры) : 0.772
Временной код первого кадра : 00:00:00:00
Оригинал временного кода : Group of pictures header
GOP, открыто/закрыто : Открыто
GOP, открыто/закрыто на первом кадре : Закрыто
Размер потока : 5,77 Гбайт (95%)
Библиотека кодирования : honestech
Основные цвета : BT.470 System M
Характеристики трансфера : BT.470 System M
Коэффициенты матрицы : BT.601

Аудио
Идентификатор : 192 (0xC0)
Формат : MPEG Audio
Версия формата : Version 1
Профиль формата : Layer 2
Продолжительность : 1 ч. 42 м.
Вид битрейта : Постоянный
Битрейт : 224 Кбит/сек
Каналы : 2 канала
Частота : 44,1 КГц
Метод сжатия : С потерями
Задержка видео : -40 мс.
Размер потока : 164 Мбайт (3%)
 
Не забывайте говорить Спасибо. Не уходите с раздачи!   
Торрент: Зарегистрирован [28 дек 2016, 21:53] Для скачивания .torrent
необходима регистрация
Или скачать с помощью
MediaGet
Статус:
Проверен
 
.torrent скачан: 0 раз
Хэш: f373de0f807fe1fd5ea051740cde66ce8394f8d5
Размер: 6.05 ГБ (6 498 023 428 байт)
Стать Автором раздачи
 
 
Раздал: 100 ГБ
Скачал: 0 байт
Ратио: Seed.
Сообщения: 187828
Зарегистрирован: 09 апр 2015, 20:00


Вернуться в Зарубежные фильмы 1991-2000

Ресурс не предоставляет электронные версии произведений, а занимается лишь коллекционированием и каталогизацией ссылок, присылаемых и публикуемых на форуме нашими читателями. Если вы являетесь правообладателем какого-либо представленного материала и не желаете чтобы ссылка на него находилась в нашем каталоге, свяжитесь с нами и мы незамедлительно удалим её. Файлы для обмена на трекере предоставлены пользователями сайта, и администрация не несёт ответственности за их содержание. Просьба не заливать файлы, защищенные авторскими правами, а также файлы нелегального содержания!
cron